↑↓Torrent.by
Поиск
Логин: Регистрация
Пароль: Восстановить пароль
Загрузка...

Козырные тузы / Smokin' Aces (2006) WEB-DLRip-AVC | D | Open Matte

Скачать kozyrnye-tuzy-smokin-aces-2006-web-dlrip-avc-d-open-matte.torrent
U Магнитная ссылка Размер: 2.33 GB Раздают: 77 Качают: 18 Добавлен: 2018-01-13 01:08:26
Козырные тузы / Smokin' Aces (2006) WEB-DLRip-AVC | D | Open Matte

Название: Козырные тузы
Оригинальное название: Smokin' Aces
Год выпуска: 2006
Жанр:  боевик, триллер, драма, криминал
Режиссер: Джо Карнахан
В ролях: Райан Рейнольдс (Richard Messner), Энди Гарсиа (Stanley Locke), Джереми Пивен (Buddy Israel), Рэй Лиотта (Donald Carruthers), Алишиа Кис (Georgia Sykes), Тараджи П. Хенсон (Sharice Watters), Коммон (Sir Ivy), Крис Пайн (Darwin Tremor), Джоэл Эдгертон (Hugo Croop), Нестор Карбонелл (Pasquale Acosta «S.A. Gerald Diego»), Томми Флэнаган (Lazlo Soot), Мартин Хендерсон (Hollis Elmore)

О фильме:
Гангстер Бадди Израэл согласился сотрудничать с ФБР и дать показания против своих мафиозных дружков. За его жизнь главой мафии назначено крупное вознаграждение в миллион долларов, и Бадди грозит реальная опасность распрощаться с жизнью еще до начала суда.

Охрана Израэла поручена двум агентам ФБР — Месснеру и Карратерсу, которым предстоит нелегкая задача защищать важного свидетеля от наемных убийц. Но работа агентов усложняется тем, что сам Бадди не привык сидеть в четырех стенах и упорно стремится появляться в людных местах и привлекать всеобщее внимание.

Страна: Великобритания, Франция, США
Студия: Relativity Media, Scion Films Limited, Studio Canal, Universal Pictures, Working Title Films
Продолжительность: 01:49:06
Перевод: Профессиональный (дублированный)
MPAA: R - Лицам до 17 лет обязательно присутствие взрослого

Файл
Качество: WEB-DLRip-AVC | Open Matte
Формат: Matroska
Видео: 1024x576 at 23.976 fps, High@L4.1, ~2548 kbps
Аудио: 48 kHz, AC3, 3/2 (L,C,R,l,r) + LFE ch, ~448 kbps
Субтитры: Russian (Captions, Full, Commentary), English (SDH, Full, Commentary)


[+] M/I
General
Unique ID                   : 338476817641805239856214720164655649043 (0xFEA4438C2E0BE70D588B0D571F29D113)
Complete name               : F:FILMSКозырные тузы.(2006).WEB-DLRIP_AVC.D. Open Matte.[-=DoMiNo=-].mkv
Format                      : Matroska
Format version              : Version 4 / Version 2
File size                   : 2.33 GiB
Duration                    : 1 h 49 min
Overall bit rate            : 3 057 kb/s
Movie name                  : Козырные тузы
Deion                 : Гангстер Бадди Израэл согласился сотрудничать с ФБР и дать показания против своих мафиозных дружков. За его жизнь главой мафии назначено крупное вознаграждение в миллион долларов, и Бадди грозит реальная опасность распрощаться с жизнью еще до начала суда. /  / Охрана Израэла поручена двум агентам ФБР — Месснеру и Карратерсу, которым предстоит нелегкая задача защищать важного свидетеля от наемных убийц. Но работа агентов усложняется тем, что сам Бадди не привык сидеть в четырех стенах и упорно стремится появляться в людных местах и привлекать всеобщее внимание.
Writing application         : XviD4PSP 7.0.437 DAILY
Writing library             : Lavf57.71.100
ErrorDetectionType          : Per level 1
Attachments                 : poster.jpg
COMPOSER                    : Клинт Мэнселл
COUNTRY                     : Великобритания, Франция, США
DATE                        : 2006
DIRECTOR                    : Джо Карнахан
GENRE                       :  [url=/tag/1/боевик]боевик, триллер, драма, криминал[/url]
HD_VIDEO                    : 1
IMDB_RATING                 : 6.70
ITUNEXTC                    : mpaa|R|400|
Language                    : und
MEDIA_TYPE                  : 9
ORIGINAL_TITLE              : Smokin' Aces
PRODUCER                    : Тим Беван, Эрик Феллнер, Джефф Абберли, Джулия Блэкман, Лиза Чейсин, Ноэль Доннеллон, Роберт Граф, Дэвид З. Обадиа
RATING                      : 7.401
WRITER                      : Джо Карнахан

Video
ID                          : 1
Format                      : AVC
Format/Info                 : Advanced Video Codec
Format profile              : High@L4.1
Format settings             : CABAC / 11 Ref Frames
Format settings, CABAC      : Yes
Format settings, ReFrames   : 11 frames
Codec ID                    : V_MPEG4/ISO/AVC
Duration                    : 1 h 49 min
Bit rate                    : 2 548 kb/s
Width                       : 1 024 pixels
Height                      : 576 pixels
Display aspect ratio        : 16:9
Frame rate mode             : Constant
Frame rate                  : 23.976 (24000/1001) FPS
Color space                 : YUV
Chroma subsampling          : 4:2:0
Bit depth                   : 8 bits
Scan type                   : Progressive
Bits/(Pixel*Frame)          : 0.180
Stream size                 : 1.94 GiB (83%)
Title                       : RIP_BY_-=DoMiNo=-
Writing library             : x264 core 155 r2893M b00bcaf
Encoding settings           : cabac=1 / ref=11 / deblock=1:-3:-3 / analyse=0x3:0x133 / me=umh / subme=11 / psy=1 / psy_rd=1.00:0.10 / mixed_ref=1 / me_range=32 / chroma_me=1 / trellis=2 / 8x8dct=1 / cqm=0 / deadzone=21,11 / fast_pskip=0 / chroma_qp_offset=-3 / threads=6 / lookahead_threads=1 / sliced_threads=0 / nr=0 / decimate=1 / interlaced=0 / bluray_compat=0 / constrained_intra=0 / bframes=12 / b_pyramid=2 / b_adapt=2 / b_bias=0 / direct=3 / weightb=1 / open_gop=0 / weightp=2 / keyint=240 / keyint_min=24 / scenecut=40 / intra_refresh=0 / rc=crf / mbtree=0 / crf=19.0 / qcomp=0.60 / qpmin=0 / qpmax=69 / qpstep=4 / ip_ratio=1.40 / pb_ratio=1.30 / aq=1:1.00
Default                     : Yes
Forced                      : No
Color range                 : Limited
Color primaries             : BT.709
Transfer characteristics    : BT.709
Matrix coefficients         : BT.709

Audio
ID                          : 2
Format                      : AC-3
Format/Info                 : Audio Coding 3
Codec ID                    : A_AC3
Duration                    : 1 h 49 min
Bit rate mode               : Constant
Bit rate                    : 448 kb/s
Channel(s)                  : 6 channels
Channel positions           : Front: L C R, Side: L R, LFE
Sampling rate               : 48.0 kHz
Frame rate                  : 31.250 FPS (1536 SPF)
Bit depth                   : 16 bits
Compression mode            : Lossy
Stream size                 : 350 MiB (15%)
Title                       : DUB
Language                    : Russian
Service kind                : Complete Main
Default                     : Yes
Forced                      : No

Text #1
ID                          : 3
Format                      : UTF-8
Codec ID                    : S_TEXT/UTF8
Codec ID/Info               : UTF-8 Plain Text
Title                       : Надписи
Language                    : Russian
Default                     : Yes
Forced                      : No

Text #2
ID                          : 4
Format                      : UTF-8
Codec ID                    : S_TEXT/UTF8
Codec ID/Info               : UTF-8 Plain Text
Title                       : Полные
Language                    : Russian
Default                     : No
Forced                      : No

Text #3
ID                          : 5
Format                      : UTF-8
Codec ID                    : S_TEXT/UTF8
Codec ID/Info               : UTF-8 Plain Text
Title                       : Комментарии Джо Карнахана, Уолтера Мерча и Роба Фрейзена
Language                    : Russian
Default                     : No
Forced                      : No

Text #4
ID                          : 6
Format                      : UTF-8
Codec ID                    : S_TEXT/UTF8
Codec ID/Info               : UTF-8 Plain Text
Title                       : SDH, полные
Language                    : English
Default                     : No
Forced                      : No

Text #5
ID                          : 7
Format                      : UTF-8
Codec ID                    : S_TEXT/UTF8
Codec ID/Info               : UTF-8 Plain Text
Title                       : Комментарии Джо Карнахана, Уолтера Мерча и Роба Фрейзена
Language                    : English
Default                     : No
Forced                      : No



Скриншоты:
[+] Всего файлов в раздаче - 1:
Козырные тузы.(2006).WEB-DLRIP_AVC.D. Open Matte.[-=DoMiNo=-].mkv2.33 GB

Текущая раздача:
ДатаКомментарии    РазмерПиры
2018-01-13 U Козырные тузы / Smokin' Aces (2006) WEB-DLRip-AVC | D | Open Matte 1 К 2.33 GB ↑ 77 ↓ 18

Похожие раздачи по запросу - козырные:
2018-01-13 U Козырные тузы / Smokin' Aces (2006) WEB-DLRip | D | Open Matte 1.45 GB ↑ 42 ↓ 16

Отзывы
kirk kirk
Первая часть хороша

Зарегистрируйтесь чтобы добавить комментарий.
Обратная связь
Copyleft ©