↑↓Torrent.by
Поиск
Логин: Регистрация
Пароль: Восстановить пароль
Загрузка...

Молодой Карл Маркс / Le jeune Karl Marx (2017) BDRip 720p | L

Скачать molodoy-karl-marks-le-jeune-marx-2017-bdrip-720p-l.torrent
U Магнитная ссылка Размер: 3.77 GB Раздают: 44 Качают: 17 Добавлен: 2018-01-13 08:54:44
Молодой Карл Маркс / Le jeune Karl Marx (2017) BDRip 720p | L

Наименование: Молодой Карл Маркс
Оригинальное наименование: Le jeune Karl Marx
Произведено: Германия, Франция, Бельгия
Категория: драма, биография, история
Режиссер постановщик: Рауль Пек
В главных ролях: Аугуст Диль, Штефан Конарске, Вики Крипс, Оливье Гурме, Ханна Стил, Александр Шеер, Ханс-Уве Бауэр, Михаэль Бранднер, Иван Франек, Питер Бенедикт

О фильме: Марксу всего 26 лет, он живет в изгнании в Париже и по горло в долгах. Знакомство с Фридрихом Энгельсом сделает его одним из величайших мировых философов.

Файл
Качество: BDRip 720p
Видео данные: MKV, 1280x536 (2:40:1), 24.000  fps,  4000 Кбит/с
Аудио данные: AC3, 2 ch, 640 Кбит/с
Перевод: Любительский многоголосый (GreenРай Studio)
Продолжительность: 01:58:29

Над релизом работали:
Состав дикторов: Екатерина Костина и Илья Кочетков, Игорь Кузьмин
Руководитель проекта и координатор: Евгений Овчаренко
Организатор и координатор: Никита Марков
Пиар менеджер студии: Игорь Обухов
Техническая поддержка: Александр Методий
Над переводом работала:  Любовь Геннадиевна

ВНИМАНИЕ! Присутствует реклама!

Релиз:


[+] Mediainfo
General
Unique ID                   : 196456990265626631713786008868833298809 (0x93CC3D72D8D53B798AE6820F25018979)
Complete name               : D:карл марксLe.jeune.Karl.Marx.2017.P.BDRip.720p.mkv
Format                      : Matroska
Format version              : Version 4 / Version 2
File size                   : 3.77 GiB
Duration                    : 1 h 58 min
Overall bit rate mode       : Constant
Overall bit rate            : 4 552 kb/s
Encoded date                : UTC 2018-01-11 12:16:26
Writing application         : mkvmerge v8.3.0 ('Over the Horizon') 64bit
Writing library             : libebml v1.3.1 + libmatroska v1.4.2

Video
ID                          : 1
Format                      : AVC
Format/Info                 : Advanced Video Codec
Format profile              : Main@L3.1
Format settings, CABAC      : Yes
Format settings, ReFrames   : 3 frames
Format settings, GOP        : M=4, N=15
Codec ID                    : V_MPEG4/ISO/AVC
Duration                    : 1 h 58 min
Bit rate mode               : Constant
Bit rate                    : 4 000 kb/s
Width                       : 1 280 pixels
Height                      : 536 pixels
Display aspect ratio        : 2.40:1
Frame rate mode             : Constant
Frame rate                  : 24.000 FPS
Standard                    : NTSC
Color space                 : YUV
Chroma subsampling          : 4:2:0
Bit depth                   : 8 bits
Scan type                   : Progressive
Bits/(Pixel*Frame)          : 0.243
Stream size                 : 3.24 GiB (86%)
Language                    : English
Default                     : Yes
Forced                      : No
Color range                 : Limited

Audio
ID                          : 2
Format                      : AC-3
Format/Info                 : Audio Coding 3
Mode extension              : CM (complete main)
Format settings, Endianness : Big
Codec ID                    : A_AC3
Duration                    : 1 h 58 min
Bit rate mode               : Constant
Bit rate                    : 640 kb/s
Channel(s)                  : 2 channels
Channel positions           : Front: L R
Sampling rate               : 48.0 kHz
Frame rate                  : 31.250 FPS (1536 spf)
Compression mode            : Lossy
Stream size                 : 543 MiB (14%)
Default                     : Yes
Forced                      : No



Скриншоты:
[+] Всего файлов в раздаче - 1:
Le.jeune.Karl.Marx.2017.P.BDRip.720p.mkv3.77 GB

Текущая раздача:
ДатаКомментарии    РазмерПиры
2018-01-13 U Молодой Карл Маркс / Le jeune Karl Marx (2017) BDRip 720p | L 3.77 GB ↑ 44 ↓ 17

Показать еще раздачи по запросу молодой:
2018-01-15 U Анна Самохина. Запомните меня молодой и красивой (2018) WEBRip от Files-х 617.43 MB ↑ 33 ↓ 10
2018-01-13 U Молодой Карл Маркс / Le jeune Karl Marx (2017) HDRip | L 1.37 GB ↑ 27 ↓ 30
2017-10-05 U Детство Шелдона / Молодой Шелдон / Young Sheldon [01x01 из 22] (2017) HDTVRip 720p | Кураж-Бамбей 527.61 MB ↑ 73 ↓ 6
2017-10-05 U Детство Шелдона / Молодой Шелдон / Young Sheldon [01x01 из 22] (2017) HDTVRip | Кураж-Бамбей 250.35 MB ↑ 115 ↓ 5
2017-07-25 U Вечно молодой / Rock'n Roll (2017) BDRip-AVC от R.G.Resident | iTunes 2.70 GB ↑ 75 ↓ 33
2017-07-25 U Вечно молодой / Rock'n Roll (2017) BDRip 1080p от ExKinoRay | iTunes 1К16.97 GB ↑ 105 ↓ 61
2017-07-24 U Вечно молодой / Rock'n Roll (2017) BDRip от MegaPeer | iTunes 797.72 MB ↑ 43 ↓ 16

Отзывы
Зарегистрируйтесь чтобы добавить комментарий.
Обратная связь
Copyleft ©