↑↓Torrent.by
Поиск
Логин: Регистрация
Пароль: Восстановить пароль
Загрузка...

Берегись автомобиля (1966) WEBRip-AVC от ExKinoRay | Цветная версия

Скачать beregis-avtomobilya-1966-webrip-avc-ot-exkinoray-cvetnaya-versiya.torrent
U Магнитная ссылка Размер: 2.21 GB Раздают: 57 Качают: 24 Добавлен: 2018-01-13 13:00:46
Берегись автомобиля (1966) WEBRip-AVC от ExKinoRay | Цветная версия

Оригинальное название: Берегись автомобиля
Год выпуска: 1966
Жанр:  Мелодрама, комедия, криминал
Режиссер: Эльдар Рязанов
В ролях: Иннокентий Смоктуновский, Олег Ефремов (I), Андрей Миронов, Анатолий Папанов, Любовь Добржанская, Ольга Аросева, Георгий Жжёнов, Татьяна Гаврилова, Евгений Евстигнеев, Донатас Банионис, Любовь Соколова, Антонина Максимова, Вячеслав Невинный ст., Сергей Кулагин, Яков Ленц, Виктория Радунская, Готлиб Ронинсон, Борис Рунге, Галина Волчек, Антонина Дмитриева, Нина Крачковская, Алексей Коренев, Николай Парфёнов

О фильме: Эта удивительная история вполне может считаться фантастической. Скромный и застенчивый страховой агент, актер самодеятельного театра Юрий Деточкин оказывается непримиримым борцом за справедливость. Правда, для правосудия, представляемого актером того же театра, а в миру - следователем Подберезовиковым, этот Робин Гуд представляется опасным, хитроумным, изобретательным и неуловимым преступником...

Страна: Россия
Студия: «Мосфильм»
Продолжительность: 01:34:00
Перевод: не требуется

Файл
Формат: MKV
Качество: WEBRip-AVC
Видео: MPEG-4 AVC, 790x576 (4:3), 23.976 fps, ~2931 kbps avg, 0.269 bit/pixel
Аудио: 48 kHz, AC3 Dolby Digital, 5.1 ch, ~384 kbps

Релиз:

Автор релиза:


[+] МИ
General
Unique ID                                : 205000239405477282837665488198617867077 (0x9A399C26D8CC054DA90243F8EC092345)
Complete name                            : D:Beregis.avtomobilya.1966.WEB-DLRip.AVC.ExKinoRay.mkv
Format                                   : Matroska
Format version                           : Version 2
File size                                : 2.21 GiB
Duration                                 : 1 h 34 min
Overall bit rate                         : 3 371 kb/s
Movie name                               : Берегись автомобиля (1966) from ExKinoRay
Encoded date                             : UTC 2018-01-13 03:57:58
Writing application                      : mkvmerge v5.6.0 ('Kenya Kane') built on May 27 2012 16:44:04
Writing library                          : libebml v1.2.3 + libmatroska v1.3.0

Video
ID                                       : 1
Format                                   : AVC
Format/Info                              : Advanced Video Codec
Format profile                           : High@L4.1
Format settings, CABAC                   : Yes
Format settings, ReFrames                : 10 frames
Codec ID                                 : V_MPEG4/ISO/AVC
Duration                                 : 1 h 34 min
Bit rate                                 : 2 931 kb/s
Width                                    : 790 pixels
Height                                   : 576 pixels
Display aspect ratio                     : 1.372
Frame rate mode                          : Constant
Frame rate                               : 23.976 (23976/1000) FPS
Color space                              : YUV
Chroma subsampling                       : 4:2:0
Bit depth                                : 8 bits
Scan type                                : Progressive
Bits/(Pixel*Frame)                       : 0.269
Stream size                              : 1.88 GiB (85%)
Title                                    : Enigma
Writing library                          : x264 core 152 r2851 ba24899
Encoding settings                        : cabac=1 / ref=10 / deblock=1:-2:-2 / analyse=0x3:0x113 / me=umh / subme=10 / psy=1 / psy_rd=1.05:0.10 / mixed_ref=1 / me_range=32 / chroma_me=1 / trellis=2 / 8x8dct=1 / cqm=0 / deadzone=21,11 / fast_pskip=0 / chroma_qp_offset=-3 / threads=12 / lookahead_threads=3 / sliced_threads=0 / nr=0 / decimate=0 / interlaced=0 / bluray_compat=0 / constrained_intra=0 / bframes=10 / b_pyramid=2 / b_adapt=2 / b_bias=0 / direct=3 / weightb=1 / open_gop=0 / weightp=2 / keyint=240 / keyint_min=23 / scenecut=40 / intra_refresh=0 / rc_lookahead=40 / rc=2pass / mbtree=0 / bitrate=2931 / ratetol=1.0 / qcomp=0.60 / qpmin=0 / qpmax=51 / qpstep=4 / cplxblur=20.0 / qblur=0.5 / vbv_maxrate=50000 / vbv_bufsize=62500 / nal_hrd=none / filler=0 / ip_ratio=1.40 / pb_ratio=1.30 / aq=1:0.90
Language                                 : English
Default                                  : Yes
Forced                                   : No
Color range                              : Limited
Color primaries                          : BT.709
Transfer characteristics                 : BT.709
Matrix coefficients                      : BT.709

Audio
ID                                       : 2
Format                                   : AC-3
Format/Info                              : Audio Coding 3
Mode extension                           : CM (complete main)
Format settings, Endianness              : Big
Codec ID                                 : A_AC3
Duration                                 : 1 h 34 min
Bit rate mode                            : Constant
Bit rate                                 : 448 kb/s
Channel(s)                               : 6 channels
Channel positions                        : Front: L C R, Side: L R, LFE
Sampling rate                            : 48.0 kHz
Frame rate                               : 31.250 FPS (1536 spf)
Compression mode                         : Lossy
Stream size                              : 301 MiB (13%)
Language                                 : Russian
Default                                  : Yes
Forced                                   : No




Скриншоты:
[+] Всего файлов в раздаче - 1:
Beregis.avtomobilya.1966.WEB-DLRip.AVC.ExKinoRay.mkv2.21 GB

Текущая раздача:
ДатаКомментарии    РазмерПиры
2018-01-13 U Берегись автомобиля (1966) WEBRip-AVC от ExKinoRay | Цветная версия 2.21 GB ↑ 57 ↓ 24

Показать еще раздачи по запросу берегись:
2018-01-13 U Берегись автомобиля (1966) WEB-DLRip 720p от KORSAR | Цветная версия 2К5.41 GB ↑ 60 ↓ 41
2018-01-13 U Берегись автомобиля (1966) WEBRip от GeneralFilm | Цветная версия 1.45 GB ↑ 61 ↓ 22
2018-01-10 U Берегись автомобиля (1966) WEBRip 1080p | Цветная версия 3.51 GB ↑ 61 ↓ 9
2017-12-05 U Смотри по сторонам / Лучше берегись / Better Watch Out (2016) BDRip от MegaPeer | L1 1.41 GB ↑ 93 ↓ 41
2017-11-19 U Берегись автомобиля (1966) HDTVRip 720p от GeneralFilm | Цветная версия 2.29 GB ↑ 255 ↓ 65
2017-11-19 U Берегись автомобиля (1966) HDTV 1080i от GeneralFilm | Цветная версия 5.23 GB ↑ 440 ↓ 136
2017-11-19 U Берегись автомобиля (1966) HDTVRip от GeneralFilm | Цветная версия 1.24 GB ↑ 318 ↓ 68

Отзывы
Зарегистрируйтесь чтобы добавить комментарий.
Обратная связь
Copyleft ©