↑↓Torrent.by
Поиск
Логин: Регистрация
Пароль: Восстановить пароль
Загрузка...

Бронкская история / A Bronx Tale (1993) BDRip 1080p | P, А

Скачать bronkskaya-istoriya-a-bronx-tale-1993-bdrip-1080p-p.torrent
U Магнитная ссылка Размер: 11.49 GB Раздают: 46 Качают: 44 Добавлен: 2018-01-13 14:19:57
Бронкская история / A Bronx Tale (1993) BDRip 1080p | P, А

Название: Бронкская история
Оригинальное название: A Bronx Tale
Год выхода: 1993
Жанр: Драма, криминал
Режиссер: Роберт Де Ниро
В ролях: Роберт Де Ниро, Чазз Пальминтери, Лилло Бранкато, Фрэнсис Капра, Тэрал Хикс, Кэтрин Нардуччи, Клем Касерта, Альфред Саукелли мл., Фрэнк Пьетранголаре, Джо Пеши
О фильме:
Король бронкской мафии Сонни убил человека. Просто так. Из-за места на парковке. Среди бела дня вытащил пистолет и несколько раз выстрелил. Полиция узнала, что свидетелем преступления был 9-летний Колоджеро, и допросила мальчика. Но Калоджеро не выдавал Сонни. И попал в любимчики мафиози. Что сильно не понравилось водителю автобуса, отцу мальчика. С этого дня началось сотрудничество Сонни и Калоджеро, и, когда мальчик вырос, он не просто стал свидетелем других кровавых деяний своего босса, но и сам оказался на краю пропасти...

Выпущено: США / Price Entertainment, Penta Entertainment, Tribeca Productions
Продолжительность: 02:01:32
Перевод: Профессиональный многоголосый, авторский
Файл
Кодек: MPEG-4 AVC
Качество: BDRip 1080p
Видео: 1920x1080, 23.976 fps, 11229 kbps
Звук:
Russian: AC3, 448 Kbps (6 ch) Профессиональный многоголосый (Союз-Видео)
Russian: AC3, 384 Kbps (6 ch) Профессиональный многоголосый (Екатеринбург Арт)
Russian: AC3, 192 Kbps (2 ch) Авторский (С.Визгунов)
Russian: AC3, 192 Kbps (2 ch) Авторский (Л.Володарский)
Russian: AC3, 448 Kbps (2 ch) Авторский (Ю.Живов)
English: AC3, 640 Kbps (2 ch) Original
Субтитры: Russian, English
Семпл

Релиз:


[+] MediaInfo & x264

Общее
Уникальный идентификатор                 : 213620277897230407612194600811797881969 (0xA0B5C4DCBAAB0C1987A21D602DA72471)
Полное имя                               : A.Bronx.Tale.1993.х264.BDRip.1080p.mkv
Формат                                   : Matroska
Версия формата                           : Version 4 / Version 2
Размер файла                             : 11,5 Гбайт
Продолжительность                        : 2 ч. 1 м.
Общий поток                              : 13,5 Мбит/сек
Название фильма                          : ☭WIDDER☭
Дата кодирования                         : UTC 2013-05-07 00:26:02
Программа кодирования                    : mkvmerge v6.2.0 ('Promised Land') built on Apr 28 2013 12:22:01
Библиотека кодирования                   : libebml v1.3.0 + libmatroska v1.4.0

Видео
Идентификатор                            : 1
Формат                                   : AVC
Формат/Информация                        : Advanced Video Codec
Профиль формата                          : High@L4.1
Параметр CABAC формата                   : Да
Параметр ReFrames формата                : 4 кадра
Идентификатор кодека                     : V_MPEG4/ISO/AVC
Битрейт                                  : 11,2 Мбит/сек
Ширина                                   : 1920 пикселей
Высота                                   : 1080 пикселей
Соотношение сторон                       : 16:9
Режим частоты кадров                     : Переменный
Частота кадров в оригинале               : 23,976 кадра/сек
Цветовое пространство                    : YUV
Субдискретизация насыщенности            : 4:2:0
Битовая глубина                          : 8 бит
Тип развёртки                            : Прогрессивная
Бит/(Пиксели*Кадры)                      : 0.226
Заголовок                                : Бронкская история / A Bronx Tale (1993)
Библиотека кодирования                   : x264 core 132 r2310 76a5c3a
Настройки программы                      : cabac=1 / ref=4 / deblock=1:-3:-3 / analyse=0x3:0x133 / me=umh / subme=11 / psy=1 / psy_rd=1.00:0.00 / mixed_ref=1 / me_range=48 / chroma_me=1 / trellis=2 / 8x8dct=1 / cqm=0 / deadzone=21,11 / fast_pskip=0 / chroma_qp_offset=-2 / threads=16 / lookahead_threads=1 / sliced_threads=0 / nr=0 / decimate=1 / interlaced=0 / bluray_compat=0 / constrained_intra=0 / bframes=5 / b_pyramid=2 / b_adapt=2 / b_bias=0 / direct=3 / weightb=1 / open_gop=0 / weightp=2 / keyint=240 / keyint_min=23 / scenecut=40 / intra_refresh=0 / rc_lookahead=60 / rc=2pass / mbtree=0 / bitrate=11229 / ratetol=1.0 / qcomp=0.60 / qpmin=0 / qpmax=69 / qpstep=4 / cplxblur=20.0 / qblur=0.5 / vbv_maxrate=62500 / vbv_bufsize=78125 / nal_hrd=none / ip_ratio=1.40 / pb_ratio=1.30 / aq=2:0.80
Язык                                     : English
Default                                  : Да
Forced                                   : Нет

Аудио #1
Идентификатор                            : 2
Формат                                   : AC-3
Формат/Информация                        : Audio Coding 3
Расширение режима                        : CM (complete main)
Параметр Endianness формата              : Big
Идентификатор кодека                     : A_AC3
Продолжительность                        : 2 ч. 1 м.
Вид битрейта                             : Постоянный
Битрейт                                  : 448 Кбит/сек
Каналы                                   : 6 каналов
Расположение каналов                     : Front: L C R, Side: L R, LFE
Частота                                  : 48,0 КГц
Битовая глубина                          : 16 бит
Метод сжатия                             : С потерями
Размер потока                            : 389 Мбайт (3%)
Заголовок                                : AC3, 448 Kbps (6 ch) Профессиональный многоголосый (Союз-Видео)
Язык                                     : Russian
Default                                  : Да
Forced                                   : Нет

Аудио #2
Идентификатор                            : 3
Формат                                   : AC-3
Формат/Информация                        : Audio Coding 3
Расширение режима                        : CM (complete main)
Параметр Endianness формата              : Big
Идентификатор кодека                     : A_AC3
Продолжительность                        : 2 ч. 1 м.
Вид битрейта                             : Постоянный
Битрейт                                  : 384 Кбит/сек
Каналы                                   : 6 каналов
Расположение каналов                     : Front: L C R, Side: L R, LFE
Частота                                  : 48,0 КГц
Битовая глубина                          : 16 бит
Метод сжатия                             : С потерями
Размер потока                            : 334 Мбайт (3%)
Заголовок                                : AC3, 384 Kbps (6 ch) Профессиональный многоголосый (Екатеринбург Арт)
Язык                                     : Russian
Default                                  : Нет
Forced                                   : Нет

Аудио #3
Идентификатор                            : 4
Формат                                   : AC-3
Формат/Информация                        : Audio Coding 3
Расширение режима                        : CM (complete main)
Параметр Endianness формата              : Big
Идентификатор кодека                     : A_AC3
Продолжительность                        : 2 ч. 1 м.
Вид битрейта                             : Постоянный
Битрейт                                  : 192 Кбит/сек
Каналы                                   : 2 канала
Расположение каналов                     : Front: L R
Частота                                  : 48,0 КГц
Битовая глубина                          : 16 бит
Метод сжатия                             : С потерями
Размер потока                            : 167 Мбайт (1%)
Заголовок                                : AC3, 192 Kbps (2 ch) Авторский (С.Визгунов)
Язык                                     : Russian
Default                                  : Нет
Forced                                   : Нет

Аудио #4
Идентификатор                            : 5
Формат                                   : AC-3
Формат/Информация                        : Audio Coding 3
Расширение режима                        : CM (complete main)
Параметр Endianness формата              : Big
Идентификатор кодека                     : A_AC3
Продолжительность                        : 2 ч. 1 м.
Вид битрейта                             : Постоянный
Битрейт                                  : 192 Кбит/сек
Каналы                                   : 2 канала
Расположение каналов                     : Front: L R
Частота                                  : 48,0 КГц
Битовая глубина                          : 16 бит
Метод сжатия                             : С потерями
Размер потока                            : 167 Мбайт (1%)
Заголовок                                : AC3, 192 Kbps (2 ch) Авторский (Л.Володарский)
Язык                                     : Russian
Default                                  : Нет
Forced                                   : Нет

Аудио #5
Идентификатор                            : 6
Формат                                   : AC-3
Формат/Информация                        : Audio Coding 3
Расширение режима                        : CM (complete main)
Параметр Endianness формата              : Big
Идентификатор кодека                     : A_AC3
Продолжительность                        : 2 ч. 1 м.
Вид битрейта                             : Постоянный
Битрейт                                  : 448 Кбит/сек
Каналы                                   : 2 канала
Расположение каналов                     : Front: L R
Частота                                  : 48,0 КГц
Битовая глубина                          : 16 бит
Метод сжатия                             : С потерями
Размер потока                            : 389 Мбайт (3%)
Заголовок                                : AC3, 448 Kbps (2 ch) Авторский (Ю.Живов)
Язык                                     : Russian
Default                                  : Нет
Forced                                   : Нет

Аудио #6
Идентификатор                            : 7
Формат                                   : AC-3
Формат/Информация                        : Audio Coding 3
Расширение режима                        : CM (complete main)
Параметр Endianness формата              : Big
Идентификатор кодека                     : A_AC3
Продолжительность                        : 2 ч. 1 м.
Вид битрейта                             : Постоянный
Битрейт                                  : 640 Кбит/сек
Каналы                                   : 2 канала
Расположение каналов                     : Front: L R
Частота                                  : 48,0 КГц
Битовая глубина                          : 16 бит
Метод сжатия                             : С потерями
Размер потока                            : 556 Мбайт (5%)
Заголовок                                : AC3, 640 Kbps (2 ch) Original
Язык                                     : English
Default                                  : Нет
Forced                                   : Нет

Текст #1
Идентификатор                            : 8
Формат                                   : UTF-8
Идентификатор кодека                     : S_TEXT/UTF8
Идентификатор кодека/Информация          : UTF-8 Plain Text
Заголовок                                : Союз-Видео
Язык                                     : Russian
Default                                  : Нет
Forced                                   : Нет

Текст #2
Идентификатор                            : 9
Формат                                   : UTF-8
Идентификатор кодека                     : S_TEXT/UTF8
Идентификатор кодека/Информация          : UTF-8 Plain Text
Заголовок                                : Екатеринбург Арт
Язык                                     : Russian
Default                                  : Нет
Forced                                   : Нет

Текст #3
Идентификатор                            : 10
Формат                                   : UTF-8
Идентификатор кодека                     : S_TEXT/UTF8
Идентификатор кодека/Информация          : UTF-8 Plain Text
Язык                                     : English
Default                                  : Нет
Forced                                   : Нет

Меню
00:00:00.000                             : :Chapter 01
00:12:44.680                             : :Chapter 02
00:25:32.112                             : :Chapter 03
00:33:09.445                             : :Chapter 04
00:46:20.527                             : :Chapter 05
00:54:55.333                             : :Chapter 06
01:04:19.021                             : :Chapter 07
01:11:43.298                             : :Chapter 08
01:23:00.892                             : :Chapter 09
01:28:50.700                             : :Chapter 10
01:40:22.933                             : :Chapter 11
01:51:39.609                             : :Chapter 12
____________________________________________
x264 [info]: frame I:1460  Avg QP:18.08  size:199030
x264 [info]: frame P:41030 Avg QP:20.57  size: 99780
x264 [info]: frame B:132351 Avg QP:23.06  size: 44195



Скриншоты:
[+] Всего файлов в раздаче - 1:
A.Bronx.Tale.1993.х264.BDRip.1080p.mkv11.49 GB

Отзывы
Зарегистрируйтесь чтобы добавить комментарий.
Обратная связь
Copyleft ©