↑↓Torrent.by
Поиск
Логин: Регистрация
Пароль: Восстановить пароль
Загрузка...

Древесный демон / Arbor Demon / Enclosure (2016) WEB-DLRip 720p | L

Скачать drevesnyy-demon-arbor-enclosure-2016-web-dlrip-720p-l.torrent
U Магнитная ссылка Размер: 2.83 GB Раздают: 54 Качают: 32 Добавлен: 2018-01-13 14:20:03
Древесный демон / Arbor Demon / Enclosure (2016) WEB-DLRip 720p | L

Наименование: Древесный демон
Оригинальное наименование: Enclosure / Arbor Demon
Произведено: США
Категория: ужасы, триллер, драма
Режиссер постановщик: Патрик Ри
В главных ролях: Фиона Дуриф, Кевин Дж. Райан, Джейк Бьюзи, Роб Баутон, Брюс Уильямсон, Мишель Миллс

О фильме: Молодая семейная пара отправляется в поход по лесам, чтобы отдохнуть от мобильных телефонов и отметить годовщину свадьбы. Там они встречают группу охотников, а группа охотников встречает нечто, что убивает даже вооружённых мужчин. Оказывается, за этими лесами закрепилась дурная слава, и не все возвращаются из походов.

Файл
Качество: WEB-DLRip 720p
Видео данные: MKV, 1280x696 (1.85:1), 23.976  fps, 4000 Кбит/с
Аудио данные: AC3, 2 ch, 384 Кбит/с
Перевод: Любительский многоголосый (GreenРай Studio)
Продолжительность: 01:33:20

Над релизом работали:
Состав дикторов: Илья Кочетков и Екатерина Костина, Анна Кириленко
Руководитель проекта и координатор: Евгений Овчаренко
Организатор и координатор: Никита Марков
Пиар менеджер студии: Игорь Обухов
Техническая поддержка: Александр Методий
Над переводом работала: Любовь Геннадиевна

ВНИМАНИЕ! Присутствует реклама!

Релиз:


[+] Mediainfo
General
Unique ID                   : 232798908154536980409089383124502769759 (0xAF237056BD71EDCDBFB6ACACBC2AF05F)
Complete name               : D:енкложерEnclosure.2016.P.WEB-DL.720p.mkv
Format                      : Matroska
Format version              : Version 4 / Version 2
File size                   : 2.83 GiB
Duration                    : 1 h 33 min
Overall bit rate mode       : Constant
Overall bit rate            : 4 342 kb/s
Encoded date                : UTC 2018-01-11 09:49:12
Writing application         : mkvmerge v8.3.0 ('Over the Horizon') 64bit
Writing library             : libebml v1.3.1 + libmatroska v1.4.2

Video
ID                          : 1
Format                      : AVC
Format/Info                 : Advanced Video Codec
Format profile              : Main@L3.1
Format settings, CABAC      : Yes
Format settings, ReFrames   : 3 frames
Format settings, GOP        : M=4, N=15
Codec ID                    : V_MPEG4/ISO/AVC
Duration                    : 1 h 33 min
Bit rate mode               : Constant
Bit rate                    : 4 000 kb/s
Width                       : 1 280 pixels
Height                      : 696 pixels
Display aspect ratio        : 1.85:1
Frame rate mode             : Constant
Frame rate                  : 23.976 (23976/1000) FPS
Standard                    : NTSC
Color space                 : YUV
Chroma subsampling          : 4:2:0
Bit depth                   : 8 bits
Scan type                   : Progressive
Bits/(Pixel*Frame)          : 0.187
Stream size                 : 2.58 GiB (91%)
Language                    : English
Default                     : Yes
Forced                      : No
Color range                 : Limited

Audio
ID                          : 2
Format                      : AC-3
Format/Info                 : Audio Coding 3
Mode extension              : CM (complete main)
Format settings, Endianness : Big
Codec ID                    : A_AC3
Duration                    : 1 h 33 min
Bit rate mode               : Constant
Bit rate                    : 384 kb/s
Channel(s)                  : 2 channels
Channel positions           : Front: L R
Sampling rate               : 48.0 kHz
Frame rate                  : 31.250 FPS (1536 spf)
Compression mode            : Lossy
Stream size                 : 257 MiB (9%)
Default                     : Yes
Forced                      : No



Скриншоты:
[+] Всего файлов в раздаче - 1:
Enclosure.2016.P.WEB-DL.720p.mkv2.83 GB

Текущая раздача:
ДатаКомментарии    РазмерПиры
2018-01-13 U Древесный демон / Arbor Demon / Enclosure (2016) WEB-DLRip 720p | L 2.83 GB ↑ 54 ↓ 32

Похожие раздачи по запросу - древесный:
2018-01-13 U Древесный демон / Arbor Demon / Enclosure (2016) WEB-DLRip | L 1.37 GB ↑ 50 ↓ 22
2017-02-07 U Древесный демон / Arbor Demon / Enclosure (2016) WEB-DLRip | L1 1.46 GB ↑ 141 ↓ 36

Отзывы
Зарегистрируйтесь чтобы добавить комментарий.
Обратная связь
Copyleft ©