↑↓Torrent.by
Поиск
Логин: Регистрация
Пароль: Восстановить пароль
Загрузка...

National Geographic: Битва болотных драконов / Battle of the Swamp Dragons (2017) HDTVRip 720p | D

Скачать national-geographic-bitva-bolotnyh-drakonov-battle-of-the-swamp-dragons-2017-hdtvrip-720p-d.torrent
U Магнитная ссылка Размер: 1.60 GB Раздают: 50 Качают: 11 Добавлен: 2018-01-13 15:55:03
National Geographic: Битва болотных драконов / Battle of the Swamp Dragons (2017) HDTVRip 720p | D

Название: Битва болотных драконов
Оригинальное: Battle of the Swamp Dragons
Год выхода: 2017
Жанр: Документальный, природа, флора, фауна
Режиссер: Касей Эдлунд

Описание:
В болотах Флориды правят современные чудовища. Огромные аллигаторы и крокодилы охотятся бок о бок и убивают одним укусом. Но в болоте может править только один король. Что будет, когда эти два титана столкнутся? Кто из них более свирепый хищник и кто победит?

Выпущено: США, Великобритания / National Geographic
Продолжительность: 00:44:00
Перевод: Дублированный

Файл
Кодек: MPEG-4 AVC
Качество: HDTVRip 720p
Видео: 1280х720, 5000 Кбит/с, 25 кадр/с
Звук: AC3, 2 канала, 192 Кбит/с
[+] MI
Общее
Уникальный идентификатор                 : 196803279868720943578279813132441284628 (0x940EEED81F8D87B0A58E83CFE9CEF014)
Полное имя                               : C:UsersDDesktopNGW_Battle of the Swamp Dragons_720p.mkv
Формат                                   : Matroska
Версия формата                           : Version 4 / Version 2
Размер файла                             : 1,60 Гбайт
Продолжительность                        : 43 м. 59 с.
Режим общего битрейта                    : Переменный
Общий поток                              : 5191 Кбит/сек
Дата кодирования                         : UTC 2017-01-21 21:02:06
Программа кодирования                    : mkvmerge v7.3.0 ('Nouages') 64bit built on Oct 22 2014 18:53:34
Библиотека кодирования                   : libebml v1.3.0 + libmatroska v1.4.1

Видео
Идентификатор                            : 1
Формат                                   : AVC
Формат/Информация                        : Advanced Video Codec
Профиль формата                          : High@L4.1
Настройки формата                        : CABAC / 3 Ref Frames
Параметр CABAC формата                   : Да
Параметр RefFrames формата               : 3 кадра
Режим смешивания                         : zlib
Идентификатор кодека                     : V_MPEG4/ISO/AVC
Продолжительность                        : 43 м. 59 с.
Вид битрейта                             : Переменный
Битрейт                                  : 4998 Кбит/сек
Максимальный битрейт                     : 8000 Кбит/сек
Ширина                                   : 1280 пикселей
Высота                                   : 720 пикселей
Соотношение сторон                       : 16:9
Режим частоты кадров                     : Постоянный
Частота кадров                           : 25,000 кадров/сек
Стандарт вещания                         : NTSC
Цветовое пространство                    : YUV
Субдискретизация насыщенности            : 4:2:0
Битовая глубина                          : 8 бит
Тип развёртки                            : Прогрессивная
Бит/(Пиксели*Кадры)                      : 0.217
Размер потока                            : 1,54 Гбайт (96%)
Default                                  : Да
Forced                                   : Нет
Цветовой диапазон                        : Limited
Основные цвета                           : BT.709
Характеристики трансфера                 : BT.709
Коэффициенты матрицы                     : BT.709

Аудио
Идентификатор                            : 2
Формат                                   : AC-3
Формат/Информация                        : Audio Coding 3
Идентификатор кодека                     : A_AC3
Продолжительность                        : 43 м. 59 с.
Вид битрейта                             : Постоянный
Битрейт                                  : 192 Кбит/сек
Каналы                                   : 2 канала
Расположение каналов                     : Front: L R
Частота                                  : 48,0 КГц
Частота кадров                           : 31,250 кадров/сек (1536 SPF)
Битовая глубина                          : 16 бит
Метод сжатия                             : С потерями
Размер потока                            : 60,4 Мбайт (4%)
Default                                  : Да
Forced                                   : Нет



Скриншоты:
[+] Всего файлов в раздаче - 1:
NGW_Battle of the Swamp Dragons_720p.mkv1.60 GB

Текущая раздача:
ДатаКомментарии    РазмерПиры
2018-01-13 U National Geographic: Битва болотных драконов / Battle of the Swamp Dragons (2017) HDTVRip 720p | D 1.60 GB ↑ 50 ↓ 11

Показать еще раздачи по запросу national:
2017-12-28 U National Geographic №01 Россия (Январь) (2018) PDF 46.78 MB ↑ 85 ↓ 19
2017-11-08 U National Geographic: Через миллион лет / Year Million [S01] (2017) HDTVRip от Kaztorrents | P1 4.14 GB ↑ 122 ↓ 49
2017-10-04 U National Geographic: Через миллион лет / Year Million [01х01 из 06] (2017) HDTVRip от Kaztorrents | P1 705.83 MB ↑ 240 ↓ 21
2017-05-26 U Евангелие от Иуды / National Geographic: The Gospel of Judas (2006) HDTV 1080i 1К2.26 GB ↑ 416 ↓ 55
2017-05-09 U National Geographic. Кусать, жалить, убивать / Bite, Sting, Kill (2017) HDTVRip от Kaztorrents | P1 630.23 MB ↑ 139 ↓ 41
2017-05-03 U National Geographic. Начало / Происхождение: Путешествие человечества / NG. Origins: The Journey of Humankind [01-04 из 08] (2017) HDTVRip от Kaztorrents | P1 2.56 GB ↑ 55 ↓ 63
2017-04-11 U National Geographic. От колыбели до могилы / Cradle to Grave (2017) HDTVRip 720p | D 3.45 GB ↑ 131 ↓ 44

Отзывы
Зарегистрируйтесь чтобы добавить комментарий.
Обратная связь
Copyleft ©