↑↓Torrent.by
Поиск
Логин: Регистрация
Пароль: Восстановить пароль
Загрузка...

Джек Райан: Теория хаоса / Jack Ryan: Shadow Recruit (2014) BDRip 1080p | Лицензия

Скачать dzhek-rayan-teoriya-haosa-jack-ryan-shadow-recruit-2014-bdrip-1080p-licenziya.torrent
U Магнитная ссылка Размер: 10.29 GB Раздают: 36 Качают: 28 Добавлен: 2018-01-13 15:55:53
Джек Райан: Теория хаоса / Jack Ryan: Shadow Recruit (2014) BDRip 1080p | Лицензия


Название: Джек Райан: Теория хаоса
Оригинальное название: Jack Ryan: Shadow Recruit
Год выхода: 2014
Жанр: боевик, триллер, драма
Режиссер: Кеннет Брэна
В ролях: Крис Пайн, Кира Найтли, Кевин Костнер, Кеннет Брэна, Алек Утгофф, Джемма Чан, Петер Андерссон, Елена Великанова, Нонсо Анози, Колм Фиор

О фильме: Являющийся финансовым аналитиком Райан переезжает в Москву для работы на некоего миллиардера. И именно этот нувориш обставит дела таким образом, чтобы на Райна пали все подозрения в организации террористического сговора с целью обрушить экономику США. И Джеку не остается ничего иного, как попытаться одновременно очистить свое имя, обезвредить заговор и спасти жену, взятую миллиардером в заложники.

 

Выпущено: США, Россия, Paramount Pictures, Skydance Productions, Mace Neufeld Productions
Продолжительность: 01:45:32
Перевод: Профессиональный (полное дублирование) - Лицензия

Файл
Качество: BDRip 1080p
Формат: MKV
Видео: MPEG4/AVC, 1920x804 (2.40:1), 10.3 Мбит/сек, 23.976 кадра/сек
Аудио 1: Русский, AC3 5.1, 640 kbps, 48 kHz (DUB, BD CEE)
Аудио 2: Русский, DTS 5.1, 1509 kbps, 48 kHz (AVO, А.Гаврилов)
Аудио 3: Английский, DTS 5.1, 1509 kbps, 48 kHz
Субтитры: Русские (форс., полные), украинские (форс., полные), английские (форс., полные, SDH)
Навигация по главам: Есть
Видеоряд: CHD


[+] MediaInfo:
Общее [url=/tag/1/][/url]
Уникальный идентификатор : 218869660415088399907342139180051916267 (0xA4A8C3670C21F9DFA387DC97FD68E5EB) [url=/tag/1/][/url]
Полное имя : D:FilmsJack.Ryan.Shadow.Recruit.2014.BDRip.1080p.mkv [url=/tag/1/][/url]
Формат : Matroska [url=/tag/1/][/url]
Версия формата : Version 2 [url=/tag/1/][/url]
Размер файла : 10,3 Гбайт [url=/tag/1/][/url]
Продолжительность : 1 ч. 45 м. [url=/tag/1/][/url]
Общий поток : 14,0 Мбит/сек [url=/tag/1/][/url]
Дата кодирования : UTC 2014-09-11 23:31:54 [url=/tag/1/][/url]
Программа кодирования : mkvmerge v5.2.0 ('I can't explain') built on Dec 18 2011 18:12:03 [url=/tag/1/][/url]
Библиотека кодирования : libebml v1.2.3 + libmatroska v1.3.0 [url=/tag/1/][/url]
[url=/tag/1/][/url]
Видео [url=/tag/1/][/url]
Идентификатор : 1 [url=/tag/1/][/url]
Формат : AVC [url=/tag/1/][/url]
Формат/Информация : Advanced Video Codec [url=/tag/1/][/url]
Профиль формата : High@L4.1 [url=/tag/1/][/url]
Параметр CABAC формата : Да [url=/tag/1/][/url]
Параметр ReFrames формата : 5 кадров [url=/tag/1/][/url]
Идентификатор кодека : V_MPEG4/ISO/AVC [url=/tag/1/][/url]
Продолжительность : 1 ч. 45 м. [url=/tag/1/][/url]
Битрейт : 10,3 Мбит/сек [url=/tag/1/][/url]
Ширина : 1920 пикселей [url=/tag/1/][/url]
Высота : 804 пикселя [url=/tag/1/][/url]
Соотношение сторон : 2,40:1 [url=/tag/1/][/url]
Режим частоты кадров : Постоянный [url=/tag/1/][/url]
Частота кадров : 23,976 кадра/сек [url=/tag/1/][/url]
Цветовое пространство : YUV [url=/tag/1/][/url]
Субдискретизация насыщенности : 4:2:0 [url=/tag/1/][/url]
Битовая глубина : 8 бит [url=/tag/1/][/url]
Тип развёртки : Прогрессивная [url=/tag/1/][/url]
Бит/(Пиксели*Кадры) : 0.279 [url=/tag/1/][/url]
Размер потока : 7,39 Гбайт (72%) [url=/tag/1/][/url]
Библиотека кодирования : x264 core 138 r2356 a1d3d17 [url=/tag/1/][/url]
Настройки программы : cabac=1 / ref=5 / deblock=1:-3:-3 / analyse=0x3:0x113 / me=umh / subme=10 / psy=1 / psy_rd=1.00:0.05 / mixed_ref=1 / me_range=32 / chroma_me=1 / trellis=2 / 8x8dct=1 / cqm=0 / deadzone=21,11 / fast_pskip=0 / chroma_qp_offset=-2 / threads=18 / lookahead_threads=1 / sliced_threads=0 / nr=0 / decimate=1 / interlaced=0 / bluray_compat=0 / constrained_intra=0 / bframes=4 / b_pyramid=2 / b_adapt=2 / b_bias=0 / direct=3 / weightb=1 / open_gop=0 / weightp=2 / keyint=250 / keyint_min=23 / scenecut=40 / intra_refresh=0 / rc=2pass / mbtree=0 / bitrate=10308 / ratetol=1.0 / qcomp=0.70 / qpmin=0 / qpmax=69 / qpstep=4 / cplxblur=20.0 / qblur=0.5 / ip_ratio=1.40 / pb_ratio=1.30 / aq=2:1.00 [url=/tag/1/][/url]
Язык : English [url=/tag/1/][/url]
Default : Да [url=/tag/1/][/url]
Forced : Нет [url=/tag/1/][/url]
[url=/tag/1/][/url]
Аудио #1 [url=/tag/1/][/url]
Идентификатор : 2 [url=/tag/1/][/url]
Формат : AC-3 [url=/tag/1/][/url]
Формат/Информация : Audio Coding 3 [url=/tag/1/][/url]
Расширение режима : CM (complete main) [url=/tag/1/][/url]
Параметр Endianness формата : Big [url=/tag/1/][/url]
Идентификатор кодека : A_AC3 [url=/tag/1/][/url]
Продолжительность : 1 ч. 45 м. [url=/tag/1/][/url]
Вид битрейта : Постоянный [url=/tag/1/][/url]
Битрейт : 640 Кбит/сек [url=/tag/1/][/url]
Каналы : 6 каналов [url=/tag/1/][/url]
Расположение каналов : Front: L C R, Side: L R, LFE [url=/tag/1/][/url]
Частота : 48,0 КГц [url=/tag/1/][/url]
Битовая глубина : 16 бит [url=/tag/1/][/url]
Метод сжатия : С потерями [url=/tag/1/][/url]
Размер потока : 483 Мбайт (5%) [url=/tag/1/][/url]
Заголовок : DUB, BD CEE [url=/tag/1/][/url]
Язык : Russian [url=/tag/1/][/url]
Default : Нет [url=/tag/1/][/url]
Forced : Да [url=/tag/1/][/url]
[url=/tag/1/][/url]
Аудио #2 [url=/tag/1/][/url]
Идентификатор : 3 [url=/tag/1/][/url]
Формат : DTS [url=/tag/1/][/url]
Формат/Информация : Digital Theater Systems [url=/tag/1/][/url]
Режим : 16 [url=/tag/1/][/url]
Параметр Endianness формата : Big [url=/tag/1/][/url]
Идентификатор кодека : A_DTS [url=/tag/1/][/url]
Продолжительность : 1 ч. 45 м. [url=/tag/1/][/url]
Вид битрейта : Постоянный [url=/tag/1/][/url]
Битрейт : 1509 Кбит/сек [url=/tag/1/][/url]
Каналы : 6 каналов [url=/tag/1/][/url]
Расположение каналов : Front: L C R, Side: L R, LFE [url=/tag/1/][/url]
Частота : 48,0 КГц [url=/tag/1/][/url]
Битовая глубина : 24 бит [url=/tag/1/][/url]
Метод сжатия : С потерями [url=/tag/1/][/url]
Размер потока : 1,11 Гбайт (11%) [url=/tag/1/][/url]
Заголовок : AVO, A.Гаврилов [url=/tag/1/][/url]
Язык : Russian [url=/tag/1/][/url]
Default : Нет [url=/tag/1/][/url]
Forced : Нет [url=/tag/1/][/url]
[url=/tag/1/][/url]
Аудио #3 [url=/tag/1/][/url]
Идентификатор : 4 [url=/tag/1/][/url]
Формат : DTS [url=/tag/1/][/url]
Формат/Информация : Digital Theater Systems [url=/tag/1/][/url]
Режим : 16 [url=/tag/1/][/url]
Параметр Endianness формата : Big [url=/tag/1/][/url]
Идентификатор кодека : A_DTS [url=/tag/1/][/url]
Продолжительность : 1 ч. 45 м. [url=/tag/1/][/url]
Вид битрейта : Постоянный [url=/tag/1/][/url]
Битрейт : 1509 Кбит/сек [url=/tag/1/][/url]
Каналы : 6 каналов [url=/tag/1/][/url]
Расположение каналов : Front: L C R, Side: L R, LFE [url=/tag/1/][/url]
Частота : 48,0 КГц [url=/tag/1/][/url]
Битовая глубина : 24 бит [url=/tag/1/][/url]
Метод сжатия : С потерями [url=/tag/1/][/url]
Размер потока : 1,11 Гбайт (11%) [url=/tag/1/][/url]
Язык : English [url=/tag/1/][/url]
Default : Нет [url=/tag/1/][/url]
Forced : Нет [url=/tag/1/][/url]
[url=/tag/1/][/url]
Текст #1 [url=/tag/1/][/url]
Идентификатор : 5 [url=/tag/1/][/url]
Формат : UTF-8 [url=/tag/1/][/url]
Идентификатор кодека : S_TEXT/UTF8 [url=/tag/1/][/url]
Идентификатор кодека/Информация : UTF-8 Plain Text [url=/tag/1/][/url]
Язык : Russian [url=/tag/1/][/url]
Default : Нет [url=/tag/1/][/url]
Forced : Нет [url=/tag/1/][/url]
[url=/tag/1/][/url]
Текст #2 [url=/tag/1/][/url]
Идентификатор : 6 [url=/tag/1/][/url]
Формат : UTF-8 [url=/tag/1/][/url]
Идентификатор кодека : S_TEXT/UTF8 [url=/tag/1/][/url]
Идентификатор кодека/Информация : UTF-8 Plain Text [url=/tag/1/][/url]
Заголовок : Full [url=/tag/1/][/url]
Язык : English [url=/tag/1/][/url]
Default : Нет [url=/tag/1/][/url]
Forced : Нет [url=/tag/1/][/url]
[url=/tag/1/][/url]
Текст #3 [url=/tag/1/][/url]
Идентификатор : 7 [url=/tag/1/][/url]
Формат : UTF-8 [url=/tag/1/][/url]
Идентификатор кодека : S_TEXT/UTF8 [url=/tag/1/][/url]
Идентификатор кодека/Информация : UTF-8 Plain Text [url=/tag/1/][/url]
Заголовок : SDH [url=/tag/1/][/url]
Язык : English [url=/tag/1/][/url]
Default : Нет [url=/tag/1/][/url]
Forced : Нет [url=/tag/1/][/url]
[url=/tag/1/][/url]
Меню [url=/tag/1/][/url]
00:05:45.470 : en:(01)00:05:45:470 [url=/tag/1/][/url]
00:12:02.471 : en:(02)00:12:02:471 [url=/tag/1/][/url]
00:18:11.006 : en:(03)00:18:11:006 [url=/tag/1/][/url]
00:23:38.792 : en:(04)00:23:38:792 [url=/tag/1/][/url]
00:31:19.794 : en:(05)00:31:19:794 [url=/tag/1/][/url]
00:40:26.298 : en:(06)00:40:26:298 [url=/tag/1/][/url]
00:48:47.466 : en:(07)00:48:47:466 [url=/tag/1/][/url]
00:57:28.069 : en:(08)00:57:28:069 [url=/tag/1/][/url]
01:06:19.642 : en:(09)01:06:19:642 [url=/tag/1/][/url]
01:13:07.466 : en:(10)01:13:07:466 [url=/tag/1/][/url]
01:21:53.867 : en:(11)01:21:53:867 [url=/tag/1/][/url]
01:27:07.096 : en:(12)01:27:07:096 [url=/tag/1/][/url]
01:35:21.507 : en:(13)01:35:21:507 [url=/tag/1/][/url]
01:38:55.054 : en:(14)01:38:55:054 [url=/tag/1/][/url]
01:45:32.117 : en:(15)01:45:32:117



Скриншоты:
[+] Всего файлов в раздаче - 1:
Jack.Ryan.Shadow.Recruit.2014.BDRip.1080p.mkv10.29 GB

Текущая раздача:
ДатаКомментарии    РазмерПиры
2018-01-13 U Джек Райан: Теория хаоса / Jack Ryan: Shadow Recruit (2014) BDRip 1080p | Лицензия 10.29 GB ↑ 36 ↓ 28

Показать еще раздачи по запросу джек:
2017-10-19 U Ли Чайлд - Цикл «Джек Ричер» [33 книги] (2004-2017) FB2 28.82 MB ↑ 233 ↓ 20
2017-08-04 U Джек Ричер 2: Никогда не возвращайся / Jack Reacher: Never Go Back (2016) BDRip 1080p | D, A 11.01 GB ↑ 38 ↓ 12
2017-08-02 U Джек Кэнфилд, Джанет Свитцер - 50 правил успеха, чтобы достичь желаемого в бизнесе и в личной жизни (2017) FB2 3.32 MB ↑ 267 ↓ 2
2017-07-20 U Джек – покоритель великанов / Jack the Giant Slayer (2013) BDRip-HEVC 1080p | D 6.50 GB ↑ 36 ↓ 19
2017-07-03 U Джек Макдевит - Сборник произведений [14 книг] (1994-2017) FB2 18.40 MB ↑ 132 ↓ 7
2017-06-30 U Джек Лондон - Собрание сочинений [13 томов] (2008-2011) FB2 24.26 MB ↑ 210 ↓ 24
2017-06-26 U Джек Уильямсон - Сборник произведений [42 книги] (1990-2013) FB2 31.51 MB ↑ 172 ↓ 9

Отзывы
Зарегистрируйтесь чтобы добавить комментарий.
Обратная связь
Copyleft ©