↑↓Torrent.by
Поиск
Логин: Регистрация
Пароль: Восстановить пароль
Загрузка...

В самое пекло / Into the Inferno (2016) WEBRip 720p | L

Скачать v-samoe-peklo-into-the-inferno-2016-webrip-720p-l.torrent
U Магнитная ссылка Размер: 3.19 GB Раздают: 64 Качают: 34 Добавлен: 2018-01-14 22:32:51
В самое пекло / Into the Inferno (2016) WEBRip  720p | L

Название: В самое пекло
Оригинальное: Into the Inferno
Год выхода: 2016
Жанр: Документальный
Режиссер: Вернер Херцог

О фильме:
В фильме много кадров с вулканами, извержениями, магмой, лавой, и это очень завораживающее зрелище. И эти кадры лишь дополнение к рассказу о людях, которые живут рядом с вулканами, и о культах которые они порождают. Тут вам жители Океании, приносящие жертвы чудищу в вулкане, порождённому соитию океана и местного царя, эфиопы, ищущие останки древних человекоподобных в тысячелетнем пепле, северные корейцы, верящие, что они все вышли из вулкана, исландцы, для которых извержения уже давно стали нормой жизни. И в итоге получается, что люди, живущие рядом с вулканом, заложники Инферно, они прям в самом пекле, которое в любой момент может поглотить их, и не раз это проделывало, даёт им ещё время пожить, наверно, поэтому в кадре много счастливых лиц. Казалось бы, что это локальное явление, и что нам парится жителям равнин не о чем, но фильм показывает, что извержение одного мощного вулкана очень может затронуть всю планету. А если сразу их рванет несколько…

Страна: Великобритания, Германия, Канада
Студия: Matter of Fact Media, Spring Films, Werner Herzog Filmproduktion
Продолжительность: 01:48:00
Перевод: Любительский (многоголосый, закадровый) [Синема УС]

Файл
Кодек: MPEG-4 AVC
Качество: WEBRip  720p
Видео: 1280х674, 4029 Кбит/с, 25 кадр/с
Звук: AC3, 2 канала, 192 Кбит/с

Реклама: присутствует


[+] MI
Уникальный идентификатор                 : 252250321212746726008273283642780846215 (0xBDC5A50BBF31D3E0A1F097EE91C08887)
Полное имя                               : C:UsersDDesktopInto.the.Inferno.2016.P.WEB-DL.72Op_KOSHARA.mkv
Формат                                   : Matroska
Версия формата                           : Version 2
Размер файла                             : 3,19 Гбайт
Продолжительность                        : 1 ч. 47 м.
Режим общего битрейта                    : Переменный
Общий поток                              : 4223 Кбит/сек
Дата кодирования                         : UTC 2017-04-28 12:43:26
Программа кодирования                    : mkvmerge v8.3.0 ('Over the Horizon') 64bit
Библиотека кодирования                   : libebml v1.3.1 + libmatroska v1.4.2

Видео
Идентификатор                            : 1
Формат                                   : AVC
Формат/Информация                        : Advanced Video Codec
Профиль формата                          : High@L4.1
Настройки формата                        : CABAC / 9 Ref Frames
Параметр CABAC формата                   : Да
Параметр RefFrames формата               : 9 кадров
Идентификатор кодека                     : V_MPEG4/ISO/AVC
Продолжительность                        : 1 ч. 47 м.
Вид битрейта                             : Переменный
Битрейт                                  : 4029 Кбит/сек
Максимальный битрейт                     : 4500 Кбит/сек
Ширина                                   : 1280 пикселей
Высота                                   : 674 пикселя
Соотношение сторон                       : 1,899
Режим частоты кадров                     : Постоянный
Частота кадров                           : 23,976 (24000/1001) кадра/сек
Стандарт вещания                         : Component
Цветовое пространство                    : YUV
Субдискретизация насыщенности            : 4:2:0
Битовая глубина                          : 8 бит
Тип развёртки                            : Прогрессивная
Бит/(Пиксели*Кадры)                      : 0.195
Размер потока                            : 3,04 Гбайт (95%)
Default                                  : Да
Forced                                   : Нет
Цветовой диапазон                        : Limited
Основные цвета                           : BT.709
Характеристики трансфера                 : BT.709
Коэффициенты матрицы                     : BT.709

Аудио
Идентификатор                            : 2
Формат                                   : AC-3
Формат/Информация                        : Audio Coding 3
Идентификатор кодека                     : A_AC3
Продолжительность                        : 1 ч. 47 м.
Вид битрейта                             : Постоянный
Битрейт                                  : 192 Кбит/сек
Каналы                                   : 2 канала
Расположение каналов                     : Front: L R
Частота                                  : 48,0 КГц
Частота кадров                           : 31,250 кадров/сек (1536 SPF)
Битовая глубина                          : 16 бит
Метод сжатия                             : С потерями
Размер потока                            : 148 Мбайт (5%)
Default                                  : Да
Forced                                   : Нет



Скриншоты:
[+] Всего файлов в раздаче - 1:
Into.the.Inferno.2016.P.WEB-DL.72Op_KOSHARA.mkv3.19 GB

Текущая раздача:
ДатаКомментарии    РазмерПиры
2018-01-14 U В самое пекло / Into the Inferno (2016) WEBRip 720p | L 3.19 GB ↑ 64 ↓ 34

Показать еще раздачи по запросу самое:
2016-04-02 U Самое худшее Рождество в моей жизни / Il peggior Natale della mia vita (2012) HDRip | Комедия ТВ 1.46 GB ↑ 135 ↓ 18
2016-03-28 U Лаврентий Берия - Спасенные дневники и личные записи. Самое полное издание (2016) FB2, RTF 23.52 MB ↑ 284 ↓ 20
2015-10-12 U Самое главное (2015) HDTVRip от Files-x 1.37 GB ↑ 445 ↓ 196
2015-10-11 U Самое главное (2015) SATRip 1.29 GB ↑ 153 ↓ 186
2014-03-10 U Watts Zap - Самое интересное, опасное и смешное из мира спорта [09.03] (2014) SATRip 758.09 MB ↑ 14 ↓ 6
2014-02-26 U Watts Zap - Самое интересное, опасное и смешное из мира спорта [18.02] (2014) SATRip 1К785.80 MB ↑ 83 ↓ 5
2014-02-24 U Самое странное оружие мира / Top Secret Weapons Revealed (2012) IPTVRip 1К3.33 GB ↑ 516 ↓ 128

Отзывы
Зарегистрируйтесь чтобы добавить комментарий.
Обратная связь
Copyleft ©