↑↓Torrent.by
Поиск
Логин: Регистрация
Пароль: Восстановить пароль
Загрузка...

Аншлаг. Старый Новый год [Эфир от 13.01] (2018) WEBRip 720p

Скачать anshlag-staryy-novyy-god-efir-ot-13-01-2018-webrip-720p.torrent
U Магнитная ссылка Размер: 2.25 GB Раздают: 101 Качают: 28 Добавлен: 2018-01-15 07:50:37
Аншлаг. Старый Новый год [Эфир от 13.01] (2018) WEBRip 720p

Название: Аншлаг. Старый Новый год
Год выхода: 2018
Жанр: ТВ-шоу, юмор, сатира, развлекательный
Ведущая: Регина Дубовицкая

О фильме:
Уже много лет привычная компания "Аншлаговцев" делает представление для телезрителей в Старый Новый год. Собравшись 13 января в своем клубе, чтобы встретить Старый Новый год вместе с любимыми зрителями, все артисты по традиции подготовили новые праздничные номера. В программу также вошли уникальные видеоматериалы из архива "Аншлага" разных лет.
В программе участвуют: Владимир Винокур и театр пародии, Клара Новикова, Владимир Данилец и Владимир Моисеенко, Сергей Дроботенко, Геннадий Ветров, Светлана Рожкова, Игорь Маменко, Николай Лукинский, Святослав Ещенко, Алексей Щеглов, Любовь Богачёва, братья Бондаренко, Владимир Жуков, трио "Девчата".

Страна: Россия
Продолжительность: 02:46:37

Файл
Кодек: MPEG-4 AVC
Качество: WEBRip 720p
Видео: 1280x720, 1799 Кбит/с, 25 fps
Звук: AAC, 2 ch, 128 kb/s

Релиз от: music80 специально для Rutor
[+] MediaInfo:
General
Complete name                  : G:DCDownloadsАншлаг - Старый новый год (13.01.2018) music80.mp4
Format                         : MPEG-4
Codec ID                       : M4V  (isom/avc1/mp42)
File size                      : 2.25 GiB
Duration                       : 2 h 46 min
Overall bit rate mode          : Variable
Overall bit rate               : 1 930 kb/s
Encoded date                   : UTC 2018-01-14 00:50:42
Tagged date                    : UTC 2018-01-14 00:50:42

Video
ID                             : 1
Format                         : AVC
Format/Info                    : Advanced Video Codec
Format profile                 : High@L3.1
Format settings                : CABAC / 2 Ref Frames
Format settings, CABAC         : Yes
Format settings, ReFrames      : 2 frames
Codec ID                       : avc1
Codec ID/Info                  : Advanced Video Coding
Duration                       : 2 h 46 min
Bit rate mode                  : Variable
Bit rate                       : 1 799 kb/s
Maximum bit rate               : 2 400 kb/s
Width                          : 1 280 pixels
Height                         : 720 pixels
Display aspect ratio           : 16:9
Frame rate mode                : Constant
Frame rate                     : 25.000 FPS
Color space                    : YUV
Chroma subsampling             : 4:2:0
Bit depth                      : 8 bits
Scan type                      : Progressive
Bits/(Pixel*Frame)             : 0.078
Stream size                    : 2.09 GiB (93%)
Encoded date                   : UTC 2018-01-14 00:50:42
Tagged date                    : UTC 2018-01-14 00:50:42

Audio
ID                             : 2
Format                         : AAC
Format/Info                    : Advanced Audio Codec
Format profile                 : LC
Codec ID                       : mp4a-40-2
Duration                       : 2 h 46 min
Bit rate mode                  : Constant
Bit rate                       : 128 kb/s
Channel(s)                     : 2 channels
Channel positions              : Front: L R
Sampling rate                  : 48.0 kHz
Frame rate                     : 46.875 FPS (1024 SPF)
Compression mode               : Lossy
Stream size                    : 149 MiB (6%)
Encoded date                   : UTC 2018-01-14 00:50:43
Tagged date                    : UTC 2018-01-14 00:50:43




Скриншоты:
[+] Всего файлов в раздаче - 1:
Аншлаг - Старый новый год (13.01.2018) music80.mp42.25 GB

Текущая раздача:
ДатаКомментарии    РазмерПиры
2018-01-15 U Аншлаг. Старый Новый год [Эфир от 13.01] (2018) WEBRip 720p 2.25 GB ↑ 101 ↓ 28

Похожие раздачи по запросу - аншлаг:
2016-10-22 U Аншлаг и компания [эфир от 21.10] (2016) HDTVRip от Files-х 1.67 GB ↑ 295 ↓ 23
2016-01-16 U Аншлаг. Старый Новый год (2016) SATRip от Files-х 1.96 GB ↑ 435 ↓ 96
2014-09-29 U Аншлаг и компания [эфир от 2014.09.27] (2014) SATRip от ExKinoRay 1.56 GB ↑ 438 ↓ 6
2014-01-15 U Аншлаг. Старый Новый Год [эфир от 13.01] (2014) SATRip 3К2.53 GB ↑ 42 ↓ 6

Отзывы
Зарегистрируйтесь чтобы добавить комментарий.
Обратная связь
Copyleft ©