↑↓Torrent.by
Поиск
Логин: Регистрация
Пароль: Восстановить пароль
Загрузка...

Как Витька Чеснок вез Леху Штыря в дом инвалидов (2017) BDRip 1080p от OlLanDGroup | Лицензия

Скачать kak-vitka-chesnok-vez-lehu-shtyrya-v-dom-invalidov-2017-bdrip-1080p-ot-ollandgroup-licenziya.torrent
U Магнитная ссылка Размер: 9.56 GB Раздают: 339 Качают: 64 Добавлен: 2018-01-15 12:40:46
Как Витька Чеснок вез Леху Штыря в дом инвалидов (2017) BDRip 1080p от OlLanDGroup | Лицензия

Оригинальное название: Как Витька Чеснок вез Леху Штыря в дом инвалидов
Год выпуска: 2017
Жанр:  Драма, комедия, криминал
Выпущено: Россия, Продюсерский центр «ВГИК-Дебют»
Режиссер: Александр Хант
В ролях: Алексей Серебряков, Евгений Ткачук, Ольга Лапшина, Роман Шаляпин, Наталия Вдовина, Алина Насибуллина, Сергей Букреев, Яна Сексте, Дмитрий Архангельский, Александра Велескевич, Михаил Тройник, Ксения Орлова, Георгий Кудренко, Ольга Воронина, Андрей Смирнов (I), Константин Гацалов, Ольга Озоллапиня

О фильме: Картина расскажет о 27-летнем Витьке Чесноке, парне с детдомовским прошлым, который мечтает сбежать от «мешающих» ему жить жены и сына. Недолюбленный в детстве и очерствевший сердцем Витька Чеснок встречает своего отца-уголовника, а теперь еще и калеку. Витька решает отвезти отца в дом инвалидов, не подозревая, какие приключения и опасности ждут их по дороге.

Качество: BDRip 1080p
Видео: MPEG-4 AVC, 13103 Kбит/с, 1920x1080, 24 кадр/с
Аудио: Русский (AC3, 6 ch, 640 Кбит/с), (DTS, 6 ch, 1509 Кбит/с)
Размер: 9.56 ГБ
Продолжительность: 01:29:47
Язык: Русский

Озвучивание - (Лицензия)
Сохранены оригинальные чаптеры как на Blu-Ray.

Релиз:  Rip by:


[+] x264

x264 [info]: frame I:804   Avg QP:15.64  size:231646
x264 [info]: frame P:33254 Avg QP:17.91  size:115109
x264 [info]: frame B:95234 Avg QP:19.31  size: 50468
x264 [info]: consecutive B-frames:  2.3%  8.6%  7.1% 39.8% 21.4% 11.3%  5.9%  0.6%  2.5%  0.1%  0.4%
x264 [info]: mb I  I16..4: 12.2% 62.4% 25.4%
x264 [info]: mb P  I16..4:  6.1% 25.1%  4.8%  P16..4: 29.9% 23.7%  6.6%  0.9%  0.1%    skip: 2.8%
x264 [info]: mb B  I16..4:  2.8%  7.2%  1.1%  B16..8: 35.1% 14.2%  2.1%  direct:13.5%  skip:23.9%  L0:44.4% L1:38.8% BI:16.8%
x264 [info]: 8x8 transform intra:67.0% inter:57.1%
x264 [info]: direct mvs  spatial:97.8% temporal:2.2%
x264 [info]: coded y,uvDC,uvAC intra: 80.1% 85.5% 59.8% inter: 36.7% 46.4% 20.6%
x264 [info]: i16 v,h,dc,p: 18% 15% 33% 34%
x264 [info]: i8 v,h,dc,ddl,ddr,vr,hd,vl,hu: 11% 10% 21%  8%  9%  9%  9% 10% 13%
x264 [info]: i4 v,h,dc,ddl,ddr,vr,hd,vl,hu: 17% 11% 36%  4%  6%  6%  7%  5%  7%
x264 [info]: i8c dc,h,v,p: 44% 27% 17% 11%
x264 [info]: Weighted P-Frames: Y:0.8% UV:0.5%
x264 [info]: ref P L0: 57.3% 11.7% 22.7%  7.9%  0.4%  0.0%
x264 [info]: ref B L0: 89.6%  8.4%  2.0%
x264 [info]: ref B L1: 94.1%  5.9%
x264 [info]: kb/s:13098.27



[+] Инфо-файл

Общее
Уникальный идентификатор                 : 242143399535071303372698128549554203994 (0xB62B1F559BC4CC2392C24779876CAD5A)
Полное имя                               : D:ЗагрузкиGarlic.2017.x264.BDRip.(1080p).OlLanDGroup.mkv
Формат                                   : Matroska
Версия формата                           : Version 4 / Version 2
Размер файла                             : 9,56 Гбайт
Продолжительность                        : 1 ч. 29 м.
Общий поток                              : 15,3 Мбит/сек
Дата кодирования                         : UTC 2018-01-15 00:02:46
Программа кодирования                    : mkvmerge v6.5.0 ('Isn't she lovely') built on Oct 20 2013 12:50:05
Библиотека кодирования                   : libebml v1.3.0 + libmatroska v1.4.1
Attachements                             : Cover - Kak.Vitka.Chesnok.Vyoz.Lyokhu.ShtyryaV.Dom.Invalidov..png

Видео
Идентификатор                            : 1
Формат                                   : AVC
Формат/Информация                        : Advanced Video Codec
Профиль формата                          : High@L4.1
Параметр CABAC формата                   : Да
Параметр ReFrames формата                : 4 кадра
Идентификатор кодека                     : V_MPEG4/ISO/AVC
Продолжительность                        : 1 ч. 29 м.
Битрейт                                  : 13,1 Мбит/сек
Ширина                                   : 1920 пикселей
Высота                                   : 1080 пикселей
Соотношение сторон                       : 16:9
Режим частоты кадров                     : Постоянный
Частота кадров                           : 24,000 кадра/сек
Цветовое пространство                    : YUV
Субдискретизация насыщенности            : 4:2:0
Битовая глубина                          : 8 бит
Тип развёртки                            : Прогрессивная
Бит/(Пиксели*Кадры)                      : 0.263
Размер потока                            : 8,03 Гбайт (84%)
Библиотека кодирования                   : x264 core 146 r2538 121396c
Настройки программы                      : cabac=1 / ref=4 / deblock=1:-2:-3 / analyse=0x3:0x133 / me=umh / subme=11 / psy=1 / psy_rd=0.90:0.15 / mixed_ref=1 / me_range=64 / chroma_me=1 / trellis=2 / 8x8dct=1 / cqm=0 / deadzone=21,11 / fast_pskip=0 / chroma_qp_offset=-3 / threads=12 / lookahead_threads=3 / sliced_threads=0 / nr=0 / decimate=0 / interlaced=0 / bluray_compat=0 / constrained_intra=0 / bframes=10 / b_pyramid=2 / b_adapt=2 / b_bias=0 / direct=3 / weightb=1 / open_gop=0 / weightp=2 / keyint=240 / keyint_min=23 / scenecut=40 / intra_refresh=0 / rc_lookahead=40 / rc=2pass / mbtree=0 / bitrate=13103 / ratetol=1.0 / qcomp=0.60 / qpmin=0 / qpmax=69 / qpstep=4 / cplxblur=20.0 / qblur=0.5 / vbv_maxrate=50000 / vbv_bufsize=62500 / nal_hrd=none / filler=0 / ip_ratio=1.40 / pb_ratio=1.30 / aq=1:1.00
Язык                                     : Russian
Default                                  : Да
Forced                                   : Нет

Аудио #1
Идентификатор                            : 2
Формат                                   : AC-3
Формат/Информация                        : Audio Coding 3
Расширение режима                        : CM (complete main)
Параметр Endianness формата              : Big
Идентификатор кодека                     : A_AC3
Продолжительность                        : 1 ч. 29 м.
Вид битрейта                             : Постоянный
Битрейт                                  : 640 Кбит/сек
Каналы                                   : 6 каналов
Расположение каналов                     : Front: L C R, Side: L R, LFE
Частота                                  : 48,0 КГц
Частота кадров                           : 31,250 кадров/сек (1536 spf)
Метод сжатия                             : С потерями
Размер потока                            : 411 Мбайт (4%)
Заголовок                                : Лицензия
Язык                                     : Russian
Default                                  : Да
Forced                                   : Нет

Аудио #2
Идентификатор                            : 3
Формат                                   : DTS
Формат/Информация                        : Digital Theater Systems
Режим                                    : 16
Параметр Endianness формата              : Big
Идентификатор кодека                     : A_DTS
Продолжительность                        : 1 ч. 29 м.
Вид битрейта                             : Постоянный
Битрейт                                  : 1509 Кбит/сек
Каналы                                   : 6 каналов
Расположение каналов                     : Front: L C R, Side: L R, LFE
Частота                                  : 48,0 КГц
Частота кадров                           : 93,750 кадра/сек (512 spf)
Битовая глубина                          : 16 бит
Метод сжатия                             : С потерями
Размер потока                            : 969 Мбайт (10%)
Заголовок                                : Лицензия
Язык                                     : Russian
Default                                  : Нет
Forced                                   : Нет

Меню
00:00:00.000                             : ru:Chapter 01
00:00:19.375                             : ru:Chapter 02
00:10:09.083                             : ru:Chapter 03
00:23:03.750                             : ru:Chapter 04
00:34:10.500                             : ru:Chapter 05
00:44:36.250                             : ru:Chapter 06
00:54:35.166                             : ru:Chapter 07
01:07:18.916                             : ru:Chapter 08
01:16:00.166                             : ru:Chapter 09




Скриншоты:
[+] Всего файлов в раздаче - 1:
Garlic.2017.x264.BDRip.(1080p).OlLanDGroup.mkv9.56 GB

Текущая раздача:
ДатаКомментарии    РазмерПиры
2018-01-15 U Как Витька Чеснок вез Леху Штыря в дом инвалидов (2017) BDRip 1080p от OlLanDGroup | Лицензия 9.56 GB ↑ 339 ↓ 64

Показать еще раздачи по запросу витька:
2018-01-21 U Как Витька Чеснок вез Леху Штыря в дом инвалидов (2017) HDRip от Scarabey | Лицензия 2К743.81 MB ↑ 154 ↓ 29
2018-01-20 U Как Витька Чеснок вез Леху Штыря в дом инвалидов (2017) HDRip от Scarabey | Лицензия 2К1.45 GB ↑ 189 ↓ 35
2018-01-18 U Как Витька Чеснок вез Леху Штыря в дом инвалидов (2017) BDRip от HQ-ViDEO | Лицензия 1К1.45 GB ↑ 298 ↓ 37
2018-01-18 U Как Витька Чеснок вез Леху Штыря в дом инвалидов (2017) BDRip от ExKinoRay | Лицензия 1.46 GB ↑ 43 ↓ 9
2018-01-15 U Как Витька Чеснок вез Леху Штыря в дом инвалидов (2017) BDRip-AVC от ExKinoRay | Лицензия 1.71 GB ↑ 235 ↓ 48
2018-01-15 U Как Витька Чеснок вез Леху Штыря в дом инвалидов (2017) BDRip-AVC от Files-x 1.34 GB ↑ 59 ↓ 26
2018-01-15 U Как Витька Чеснок вез Леху Штыря в дом инвалидов (2017) BDRip 720p от ExKinoRay | Лицензия 4.39 GB ↑ 332 ↓ 56

Отзывы
Зарегистрируйтесь чтобы добавить комментарий.
Обратная связь
Copyleft ©