↑↓Torrent.by
Поиск
Логин: Регистрация
Пароль: Восстановить пароль
Загрузка...

Как Витька Чеснок вез Леху Штыря в дом инвалидов (2017) BDRip 720p от ExKinoRay | Лицензия

Скачать kak-vitka-chesnok-vez-lehu-shtyrya-v-dom-invalidov-2017-bdrip-720p-ot-exkinoray-licenziya.torrent
U Магнитная ссылка Размер: 4.39 GB Раздают: 216 Качают: 53 Добавлен: 2018-01-15 12:41:06
Как Витька Чеснок вез Леху Штыря в дом инвалидов (2017) BDRip 720p от ExKinoRay | Лицензия

Оригинальное название: Как Витька Чеснок вез Леху Штыря в дом инвалидов
Год выпуска: 2017
Жанр:  Драма, комедия, криминал
Выпущено: Россия, Продюсерский центр «ВГИК-Дебют»
Режиссер: Александр Хант
В ролях: Алексей Серебряков, Евгений Ткачук, Ольга Лапшина, Роман Шаляпин, Наталия Вдовина, Алина Насибуллина, Сергей Букреев, Яна Сексте, Дмитрий Архангельский, Александра Велескевич, Михаил Тройник, Ксения Орлова, Георгий Кудренко, Ольга Воронина, Андрей Смирнов (I), Константин Гацалов, Ольга Озоллапиня

О фильме: Картина расскажет о 27-летнем Витьке Чесноке, парне с детдомовским прошлым, который мечтает сбежать от «мешающих» ему жить жены и сына. Недолюбленный в детстве и очерствевший сердцем Витька Чеснок встречает своего отца-уголовника, а теперь еще и калеку. Витька решает отвезти отца в дом инвалидов, не подозревая, какие приключения и опасности ждут их по дороге.

Формат: MKV
Качество: BDRip 720p (исх. Garlic.2017.BDRemux.(1080p).OlLanDGroup)
Видео: MPEG-4 AVC, 1280x720 (16:9), 24.000 fps, ~4849 kbps avg, 0.219 bit/pixel
Аудио 1: 48 kHz, AC3, 5.1, 640 Kbps | RUS |
Аудио 2: 48 kHz, DTS, 5.1, 1509 Kbps | RUS |
Язык: Русский

Озвучивание - (Лицензия)
Сохранены оригинальные чаптеры как на Blu-Ray.

Релиз:

Автор релиза:


[+] Инфо-файл

x264 [info]: frame I:843 Avg QP:14.65 size:150809
x264 [info]: frame P:29404 Avg QP:17.74 size: 50466
x264 [info]: frame B:99045 Avg QP:19.14 size: 16665
------------------------------------------------------
General
Unique ID                                : 241268762583145945895373451804919235959 (0xB582AC673F0DAACDB7E64F08292C8577)
Complete name                            : D:Garlic.2017BDRip.720p.ExKinoRay.mkv
Format                                   : Matroska
Format version                           : Version 2
File size                                : 4.39 GiB
Duration                                 : 1 h 29 min
Overall bit rate                         : 6 995 kb/s
Movie name                               : Как Витька Чеснок вез Леху Штыря в дом инвалидов (2017) from ExKinoRay
Encoded date                             : UTC 2018-01-15 04:25:24
Writing application                      : mkvmerge v5.6.0 ('Kenya Kane') built on May 27 2012 16:44:04
Writing library                          : libebml v1.2.3 + libmatroska v1.3.0

Video
ID                                       : 1
Format                                   : AVC
Format/Info                              : Advanced Video Codec
Format profile                           : High@L4.1
Format settings, CABAC                   : Yes
Format settings, ReFrames                : 9 frames
Codec ID                                 : V_MPEG4/ISO/AVC
Duration                                 : 1 h 29 min
Bit rate                                 : 4 849 kb/s
Width                                    : 1 280 pixels
Height                                   : 720 pixels
Display aspect ratio                     : 16:9
Frame rate mode                          : Constant
Frame rate                               : 24.000 FPS
Color space                              : YUV
Chroma subsampling                       : 4:2:0
Bit depth                                : 8 bits
Scan type                                : Progressive
Bits/(Pixel*Frame)                       : 0.219
Stream size                              : 2.95 GiB (67%)
Title                                    : Enigma
Writing library                          : x264 core 152 r2851 ba24899
Encoding settings                        : cabac=1 / ref=9 / deblock=1:-2:-2 / analyse=0x3:0x133 / me=umh / subme=10 / psy=1 / psy_rd=1.00:0.05 / mixed_ref=1 / me_range=32 / chroma_me=1 / trellis=2 / 8x8dct=1 / cqm=0 / deadzone=21,11 / fast_pskip=0 / chroma_qp_offset=-3 / threads=12 / lookahead_threads=3 / sliced_threads=0 / nr=0 / decimate=0 / interlaced=0 / bluray_compat=0 / constrained_intra=0 / bframes=10 / b_pyramid=2 / b_adapt=2 / b_bias=0 / direct=3 / weightb=1 / open_gop=0 / weightp=2 / keyint=240 / keyint_min=23 / scenecut=40 / intra_refresh=0 / rc_lookahead=40 / rc=2pass / mbtree=0 / bitrate=4849 / ratetol=1.0 / qcomp=0.60 / qpmin=0 / qpmax=51 / qpstep=4 / cplxblur=20.0 / qblur=0.5 / vbv_maxrate=50000 / vbv_bufsize=62500 / nal_hrd=none / filler=0 / ip_ratio=1.40 / pb_ratio=1.30 / aq=1:1.00
Language                                 : English
Default                                  : Yes
Forced                                   : No
Color range                              : Limited
Color primaries                          : BT.709
Transfer characteristics                 : BT.709
Matrix coefficients                      : BT.709

Audio #1
ID                                       : 2
Format                                   : AC-3
Format/Info                              : Audio Coding 3
Mode extension                           : CM (complete main)
Format settings, Endianness              : Big
Codec ID                                 : A_AC3
Duration                                 : 1 h 29 min
Bit rate mode                            : Constant
Bit rate                                 : 640 kb/s
Channel(s)                               : 6 channels
Channel positions                        : Front: L C R, Side: L R, LFE
Sampling rate                            : 48.0 kHz
Frame rate                               : 31.250 FPS (1536 spf)
Compression mode                         : Lossy
Stream size                              : 411 MiB (9%)
Language                                 : Russian
Default                                  : Yes
Forced                                   : No

Audio #2
ID                                       : 3
Format                                   : DTS
Format/Info                              : Digital Theater Systems
Mode                                     : 16
Format settings, Endianness              : Big
Codec ID                                 : A_DTS
Duration                                 : 1 h 29 min
Bit rate mode                            : Constant
Bit rate                                 : 1 509 kb/s
Channel(s)                               : 6 channels
Channel positions                        : Front: L C R, Side: L R, LFE
Sampling rate                            : 48.0 kHz
Frame rate                               : 93.750 FPS (512 spf)
Bit depth                                : 24 bits
Compression mode                         : Lossy
Stream size                              : 969 MiB (22%)
Language                                 : Russian
Default                                  : No
Forced                                   : No

Menu
00:00:00.000                             : ru:Chapter 01
00:00:19.375                             : ru:Chapter 02
00:10:09.083                             : ru:Chapter 03
00:23:03.750                             : ru:Chapter 04
00:34:10.500                             : ru:Chapter 05
00:44:36.250                             : ru:Chapter 06
00:54:35.166                             : ru:Chapter 07
01:07:18.916                             : ru:Chapter 08
01:16:00.166                             : ru:Chapter 09




Скриншоты:
[+] Всего файлов в раздаче - 1:
Garlic.2017BDRip.720p.ExKinoRay.mkv4.39 GB

Текущая раздача:
ДатаКомментарии    РазмерПиры
2018-01-15 U Как Витька Чеснок вез Леху Штыря в дом инвалидов (2017) BDRip 720p от ExKinoRay | Лицензия 4.39 GB ↑ 216 ↓ 53

Показать еще раздачи по запросу витька:
2018-01-21 U Как Витька Чеснок вез Леху Штыря в дом инвалидов (2017) HDRip от Scarabey | Лицензия 2К743.81 MB ↑ 156 ↓ 27
2018-01-20 U Как Витька Чеснок вез Леху Штыря в дом инвалидов (2017) HDRip от Scarabey | Лицензия 2К1.45 GB ↑ 89 ↓ 34
2018-01-18 U Как Витька Чеснок вез Леху Штыря в дом инвалидов (2017) BDRip от HQ-ViDEO | Лицензия 1К1.45 GB ↑ 234 ↓ 37
2018-01-18 U Как Витька Чеснок вез Леху Штыря в дом инвалидов (2017) BDRip от ExKinoRay | Лицензия 1.46 GB ↑ 44 ↓ 8
2018-01-15 U Как Витька Чеснок вез Леху Штыря в дом инвалидов (2017) BDRip-AVC от ExKinoRay | Лицензия 1.71 GB ↑ 236 ↓ 47
2018-01-15 U Как Витька Чеснок вез Леху Штыря в дом инвалидов (2017) BDRip-AVC от Files-x 1.34 GB ↑ 53 ↓ 24
2018-01-15 U Как Витька Чеснок вез Леху Штыря в дом инвалидов (2017) BDRip 1080p от OlLanDGroup | Лицензия 9.56 GB ↑ 309 ↓ 61

Отзывы
Зарегистрируйтесь чтобы добавить комментарий.
Обратная связь
Copyleft ©