↑↓Torrent.by
Поиск
Логин: Регистрация
Пароль: Восстановить пароль
Загрузка...

Тэд-путешественник и тайна царя Мидаса / Tadeo Jones 2: El secreto del Rey Midas (2017) BDRip 1080p от Ash61 | 3D-Video | halfOU | iTunes

Скачать ted-puteshestvennik-i-tayna-carya-midasa-tadeo-jones-2-el-secreto-del-rey-midas-2017-bdrip-1080p-ot-ash61-3d-video-halfou-itunes.torrent
U Магнитная ссылка Размер: 5.21 GB Раздают: 62 Качают: 28 Добавлен: 2018-01-16 15:30:29
Тэд-путешественник и тайна царя Мидаса / Tadeo Jones 2: El secreto del Rey Midas (2017) BDRip 1080p от Ash61 | 3D-Video | halfOU | iTunes

Тэд-путешественник и тайна царя Мидаса
Tadeo Jones 2: El secreto del Rey Midas
Tad the Lost Explorer and the Secret of King Midas

Год выпуска: 2017
Страна: Испания (Paramount Pictures, Mediaset España, Moviestar+, ...)
Жанр:  Мультфильм, Комедия, Приключения, Семейный
Продолжительность: 01:24:59
Перевод: Профессиональный дублированный - iTunes

Режиссеры: Давид Алонсо, Энрике Гато / David Alonso, Enrique Gato

Роли озвучивали / дублировали: Оскар Барберан / Пётр Иващенко (Tadeo Jones), Мишель Хеннер / Татьяна Шитова (Sara Lavrof), Адриана Угарте / Анна Киселёва (Tiffany), Луис Посада / Илья Хвостиков (Momia), Мигель Анхель Хеннер / Михаил Белякович (Jack Rackham), Хосе Корбачо / Александр Новиков (Taxista), Росер Баталья (Secuaz Mujer), Рафаэль Калво / Александр Новиков (Obrero 1), Давид Брау / Антон Колесников (Obrero 2), Франческ Бельда / Александр Новиков (Secuaz musculoso / Capataz), Пабло Гомез / Олег Новиков (Marinero), Мануэль Осто / Григорий Маликов (Anticuario)

Описание: Тэд, не самый удачливый и ловкий исследователь и путешественник, и его странноватые друзья, в числе которых настоящая мумия и смышленый пес Джефф, отправляются на розыски злобного богача Джека Рэкхема, похитившего Сару. Любимая Тэда обнаружила, где спрятаны сокровища легендарного царя Мидаса, и злодей надеется их заполучить. Но Тэд и его команда должны разрушить планы беспринципного богача и освободить Сару!

Премьера: 13 июня 2017 (19 октября 2017)
Бюджет: €9 000 000


За исходный BD 3D спасибо  и igornissan!

Качество: BDRip (by Ash61)
Контейнер: MKV
Формат 3D: Half OverUnder / Вертикальная анаморфная стереопара
Порядок ракурсов: левый ракурс первый

Видео: AVC / 1920х1080p / 23,976 fps / 8000 Kbps

Аудио:
#1 - Русский / AC3 / 48 KHz / 5.1 ch / 384 Kbps (Дубляж - iTunes)
#2 - Английский / AC3 / 48 KHz / 5.1 ch / 384 Kbps (Dubbing - iTunes)

Субтитры (SRT):
Вшитые (softsub):
#1 - Русские Форсированные (включены по умолчанию)
#2 - Русские Полные

Внешние (UTF-8):
#1 - Русские Форсированные (включены по умолчанию)
#2 - Русские Полные

[+] MediaInfo
General
Unique ID                   : 234539898039811586284518075974917735980 (0xB072BDC4733800B6856E6A0EE3D2C62C)
Complete name               : D:TadeoJones2(2017)3D-halfOU(Ash61)iTunesTadeoJones2(2017)3D-halfOU(Ash61)iTunes.mkv
Format                      : Matroska
Format version              : Version 4 / Version 2
File size                   : 5.21 GiB
Duration                    : 1h 24mn
Overall bit rate            : 8 772 Kbps
Movie name                  : Тэд-путешественник и тайна царя Мидаса / Tadeo Jones 2: El secreto del Rey Midas / Tad the Lost Explorer and the Secret of King Midas (2017) in 3D
Encoded date                : UTC 2018-01-14 17:08:14
Writing application         : mkvmerge v19.0.0 ('Brave Captain') 64-bit
Writing library             : libebml v1.3.5 + libmatroska v1.4.8

Video
ID                          : 1
Format                      : AVC
Format/Info                 : Advanced Video Codec
Format profile              : High@L4.1
Format settings, CABAC      : Yes
Format settings, ReFrames   : 4 frames
Codec ID                    : V_MPEG4/ISO/AVC
Duration                    : 1h 24mn
Bit rate                    : 8 000 Kbps
Width                       : 1 920 pixels
Height                      : 1 080 pixels
Display aspect ratio        : 16:9
Frame rate mode             : Constant
Frame rate                  : 23.976 (24000/1001) fps
Color space                 : YUV
Chroma subsampling          : 4:2:0
Bit depth                   : 8 bits
Scan type                   : Progressive
Bits/(Pixel*Frame)          : 0.161
Stream size                 : 4.75 GiB (91%)
Title                       : BDRip by Ash61
Writing library             : x264 core 146 r2538 121396c
Encoding settings           : cabac=1 / ref=4 / deblock=1:-3:-3 / analyse=0x3:0x113 / me=umh / subme=10 / psy=1 / psy_rd=1.00:0.00 / mixed_ref=1 / me_range=32 / chroma_me=1 / trellis=2 / 8x8dct=1 / cqm=0 / deadzone=21,11 / fast_pskip=0 / chroma_qp_offset=-2 / threads=12 / lookahead_threads=2 / sliced_threads=0 / nr=0 / decimate=0 / interlaced=0 / bluray_compat=0 / constrained_intra=0 / bframes=8 / b_pyramid=2 / b_adapt=2 / b_bias=0 / direct=3 / weightb=1 / open_gop=0 / weightp=2 / keyint=250 / keyint_min=23 / scenecut=40 / intra_refresh=0 / rc_lookahead=60 / rc=2pass / mbtree=0 / bitrate=8000 / ratetol=1.0 / qcomp=0.70 / qpmin=0 / qpmax=69 / qpstep=4 / cplxblur=20.0 / qblur=0.5 / vbv_maxrate=40000 / vbv_bufsize=30000 / nal_hrd=none / filler=0 / frame-packing=4 / ip_ratio=1.40 / pb_ratio=1.30 / aq=1:0.70
Language                    : Spanish
Default                     : Yes
Forced                      : No

Audio #1
ID                          : 2
Format                      : AC-3
Format/Info                 : Audio Coding 3
Mode extension              : CM (complete main)
Format settings, Endianness : Big
Codec ID                    : A_AC3
Duration                    : 1h 24mn
Bit rate mode               : Constant
Bit rate                    : 384 Kbps
Channel(s)                  : 6 channels
Channel positions           : Front: L C R, Side: L R, LFE
Sampling rate               : 48.0 KHz
Frame rate                  : 31.250 fps (1536 spf)
Compression mode            : Lossy
Stream size                 : 233 MiB (4%)
Title                       : Дубляж - iTunes
Language                    : Russian
Default                     : Yes
Forced                      : No

Audio #2
ID                          : 3
Format                      : AC-3
Format/Info                 : Audio Coding 3
Mode extension              : CM (complete main)
Format settings, Endianness : Big
Codec ID                    : A_AC3
Duration                    : 1h 24mn
Bit rate mode               : Constant
Bit rate                    : 384 Kbps
Channel(s)                  : 6 channels
Channel positions           : Front: L C R, Side: L R, LFE
Sampling rate               : 48.0 KHz
Frame rate                  : 31.250 fps (1536 spf)
Compression mode            : Lossy
Stream size                 : 233 MiB (4%)
Title                       : Dubbing - iTunes
Language                    : English
Default                     : No
Forced                      : No

Text #1
ID                          : 4
Format                      : UTF-8
Codec ID                    : S_TEXT/UTF8
Codec ID/Info               : UTF-8 Plain Text
Duration                    : 1h 13mn
Bit rate                    : 1 bps
Count of elements           : 18
Stream size                 : 559 Bytes (0%)
Title                       : Форсированные
Language                    : Russian
Default                     : Yes
Forced                      : No

Text #2
ID                          : 5
Format                      : UTF-8
Codec ID                    : S_TEXT/UTF8
Codec ID/Info               : UTF-8 Plain Text
Duration                    : 1h 24mn
Bit rate                    : 75 bps
Count of elements           : 1000
Stream size                 : 47.0 KiB (0%)
Title                       : Полные
Language                    : Russian
Default                     : No
Forced                      : No

Menu
00:00:00.000                : :1
00:04:23.305                : :2
00:10:52.485                : :3
00:17:06.984                : :4
00:22:32.351                : :5
00:27:33.151                : :6
00:33:01.396                : :7
00:36:20.762                : :8
00:43:11.380                : :9
00:50:25.773                : :10
00:55:26.907                : :11
00:59:23.226                : :12
01:05:02.857                : :13
01:14:30.716                : :14
01:17:35.276                : :15



[+] Для оценки 3Д - Анимированные скрины















[+] Всего файлов в раздаче - 3:
TadeoJones2(2017)3D-halfOU(Ash61)iTunes.mkv5.21 GB
TadeoJones2(2017)3D-halfOU(Ash61)iTunes.srt1.24 kB
TadeoJones2(2017)Субтитры.Русские.Полные.srt85.92 kB

Текущая раздача:
ДатаКомментарии    РазмерПиры
2018-01-16 U Тэд-путешественник и тайна царя Мидаса / Tadeo Jones 2: El secreto del Rey Midas (2017) BDRip 1080p от Ash61 | 3D-Video | halfOU | iTunes 5.21 GB ↑ 62 ↓ 28

Показать еще раздачи по запросу путешественник:
2018-01-09 U Тэд-путешественник и тайна царя Мидаса / Tadeo Jones 2: El secreto del Rey Midas (2017) BDRip от ExKinoRay | iTunes 1.42 GB ↑ 174 ↓ 20
2018-01-06 U Тэд-путешественник и тайна царя Мидаса / Tadeo Jones 2: El secreto del Rey Midas (2017) HDRip-AVC от Kaztorrents | iTunes 1.46 GB ↑ 106 ↓ 46
2018-01-05 U Тэд-путешественник и тайна царя Мидаса / Tadeo Jones 2: El secreto del Rey Midas (2017) BDRip от MegaPeer | iTunes 1.42 GB ↑ 124 ↓ 59
2018-01-04 U Тэд-путешественник и тайна царя Мидаса / Tadeo Jones 2: El secreto del Rey Midas (2017) BDRip 1080p от ExKinoRay | iTunes 7.88 GB ↑ 156 ↓ 104
2018-01-04 U Тэд-путешественник и тайна царя Мидаса / Tadeo Jones 2: El secreto del Rey Midas (2017) НDRip | iTunes 1.37 GB ↑ 341 ↓ 114
2014-06-27 U Странник / Путник / Путешественник / El caminante / The Traveller (1979) DVDRip-AVC 1.45 GB ↑ 30 ↓ 25
2014-02-20 U Путешественник скорби / The Grief Tourist (2012) HDRip | L2 1.37 GB ↑ 56 ↓ 17

Отзывы
Зарегистрируйтесь чтобы добавить комментарий.
Обратная связь
Copyleft ©