↑↓Torrent.by
Поиск
Логин: Регистрация
Пароль: Восстановить пароль
Загрузка...

Королева бензоколонки (1962) HDTVRip 720p от KORSAR

Скачать koroleva-benzokolonki-1962-hdtvrip-720p-ot-korsar.torrent
U Магнитная ссылка Размер: 2.75 GB Раздают: 64 Качают: 11 Добавлен: 2018-01-17 06:42:28
Королева бензоколонки (1962) HDTVRip 720p от KORSAR

Королева бензоколонки

Страна: СССР
Студия: Киностудия им. А. Довженко
Жанр:  Комедия
Год выпуска: 1962
Продолжительность: 01:12:54
Перевод: Не требуется
Субтитры: Нет
Оригинальная аудио дорожка: Русский

Режиссёр: Николай Литус, Алексей Мишурин
В ролях: Надежда Румянцева, Андрей Сова, Алексей Кожевников, Нонна Копержинская, Юрий Белов, Владимир Белокуров,
Сергей Блинников, Виктор Мягкий, Николай Яковченко, Евгения Опалова, Виктор Халатов, Павел Винник, Александр Хвыля,
Сергей Шеметило, Николай Панасьев, Валентин Грудинин, Григорий Тесля, Валентин Черняк, Александр Толстых, Валентин Зиновьев,
Семён Лихогоденко, Валерий Панарин, Борис Болдыревский, Михаил Крамар

Описание: Как и все девушки шестидесятых годов, Людмила мечтает танцевать в балете на льду.
Но она не проходит по конкурсу - и меняет свою мечту: после ряда приключений
Людмила устраивается на бензоколонке заправщицей...

Кодек: х264
Качество: HDTVRip 720р - без всплывающих окошек и посторонних надписей, мешающих просмотру!
Видео: MPEG-4 AVC, 996x720, 25 fps, 4950 Кбит/с
Звук: AC3, 2 ch, 256 Кбит/с, AC3, 1 ch, 192 Кбит/с


[+] Инфо файл

x264 [info]: frame I:624   Avg QP:17.99  size:118098
x264 [info]: frame P:33271 Avg QP:20.51  size: 48487
x264 [info]: frame B:75529 Avg QP:22.30  size: 13526
x264 [info]: consecutive B-frames:  6.8%  7.5% 15.3% 36.7% 17.0% 15.2%  1.0%  0.3%  0.0%

Общее
Уникальный идентификатор                 : 202707402889111089959110525609600794732 (0x9880069568E04881967236E03F12C06C)
Полное имя                               : D:Королева бензоколонки_1962-HDTVRip 720p.mkv
Формат                                   : Matroska
Версия формата                           : Version 2
Размер файла                             : 2,75 Гбайт
Продолжительность                        : 1 ч. 12 м.
Общий поток                              : 5401 Кбит/сек
Дата кодирования                         : UTC 2017-05-21 17:55:59
Программа кодирования                    : mkvmerge v5.8.0 ('No Sleep / Pillow') built on Sep  2 2012 15:37:04
Библиотека кодирования                   : libebml v1.2.3 + libmatroska v1.3.0

Видео
Идентификатор                            : 1
Формат                                   : AVC
Формат/Информация                        : Advanced Video Codec
Профиль формата                          : High@L4.1
Параметр CABAC формата                   : Да
Параметр ReFrames формата                : 11 кадров
Идентификатор кодека                     : V_MPEG4/ISO/AVC
Продолжительность                        : 1 ч. 12 м.
Битрейт                                  : 4950 Кбит/сек
Ширина                                   : 986 пикселей
Высота                                   : 720 пикселей
Соотношение сторон                       : 4:3
Режим частоты кадров                     : Постоянный
Частота кадров                           : 25,000 кадров/сек
Цветовое пространство                    : YUV
Субдискретизация насыщенности            : 4:2:0
Битовая глубина                          : 8 бит
Тип развёртки                            : Прогрессивная
Бит/(Пиксели*Кадры)                      : 0.279
Размер потока                            : 2,47 Гбайт (90%)
Заголовок                                : korsar.tv
Библиотека кодирования                   : x264 core 148 r2744kMod b97ae06
Настройки программы                      : cabac=1 / ref=11 / deblock=1:-2:-2 / analyse=0x3:0x113 / me=umh / subme=10 / psy=1 / fade_compensate=0.00 / psy_rd=1.05:0.10 / mixed_ref=1 / me_range=32 / chroma_me=1 / trellis=2 / 8x8dct=1 / cqm=0 / deadzone=21,11 / fast_pskip=0 / chroma_qp_offset=-3 / threads=12 / lookahead_threads=2 / sliced_threads=0 / nr=0 / decimate=0 / interlaced=0 / bluray_compat=0 / constrained_intra=0 / bframes=8 / b_pyramid=2 / b_adapt=2 / b_bias=0 / direct=3 / weightb=1 / open_gop=0 / weightp=2 / keyint=250 / keyint_min=25 / scenecut=40 / intra_refresh=0 / rc=2pass / mbtree=0 / bitrate=4950 / ratetol=1.0 / qcomp=0.63 / qpmin=0 / qpmax=39 / qpstep=4 / cplxblur=20.0 / qblur=0.5 / ip_ratio=1.25 / pb_ratio=1.30 / aq=2:0.90
Язык                                     : English
Default                                  : Да
Forced                                   : Нет
Цветовой диапазон                        : Limited
Основные цвета                           : BT.709
Характеристики трансфера                 : BT.709
Коэффициенты матрицы                     : BT.709

Аудио #1
Идентификатор                            : 2
Формат                                   : AC-3
Формат/Информация                        : Audio Coding 3
Расширение режима                        : CM (complete main)
Параметр Endianness формата              : Big
Идентификатор кодека                     : A_AC3
Продолжительность                        : 1 ч. 12 м.
Вид битрейта                             : Постоянный
Битрейт                                  : 256 Кбит/сек
Каналы                                   : 2 канала
Расположение каналов                     : Front: L R
Частота                                  : 48,0 КГц
Частота кадров                           : 31,250 кадров/сек (1536 spf)
Битовая глубина                          : 16 бит
Метод сжатия                             : С потерями
Размер потока                            : 134 Мбайт (5%)
Язык                                     : Russian
Default                                  : Да
Forced                                   : Нет

Аудио #2
Идентификатор                            : 3
Формат                                   : AC-3
Формат/Информация                        : Audio Coding 3
Расширение режима                        : CM (complete main)
Параметр Endianness формата              : Big
Идентификатор кодека                     : A_AC3
Продолжительность                        : 1 ч. 12 м.
Вид битрейта                             : Постоянный
Битрейт                                  : 192 Кбит/сек
Каналы                                   : 1 канал
Расположение каналов                     : Front: C
Частота                                  : 48,0 КГц
Частота кадров                           : 31,250 кадров/сек (1536 spf)
Битовая глубина                          : 16 бит
Метод сжатия                             : С потерями
Размер потока                            : 100 Мбайт (4%)
Заголовок                                : mono
Язык                                     : Russian
Default                                  : Нет
Forced                                   : Нет




Скриншоты:
[+] Всего файлов в раздаче - 1:
Королева бензоколонки_1962-HDTVRip 720p.mkv2.75 GB

Текущая раздача:
ДатаКомментарии    РазмерПиры
2018-01-17 U Королева бензоколонки (1962) HDTVRip 720p от KORSAR 2.75 GB ↑ 64 ↓ 11

Показать еще раздачи по запросу королева:
2018-01-25 U Тайны Духов 10: Последняя Королева Огня / Spirits of Mystery 10: The Last Fire Queen CE (2018) PC 959.86 MB ↑ 134 ↓ 20
2018-01-20 U Клеопатра, королева секса / Kureopatora (1970) DVDRip от BadBajo | L1 1.57 GB ↑ 174 ↓ 65
2018-01-06 U Королева при исполнении [01-02 из 02] (2018) WEB-DLRip 1080p от MediaClub 3.49 GB ↑ 61 ↓ 59
2018-01-06 U Королева при исполнении [01-02 из 02] (2018) DVB от GeneralFilm 1.93 GB ↑ 46 ↓ 18
2018-01-06 U Королева при исполнении [01-02 из 02] (2018) WEB-DLRip-AVC от Files-x 1.15 GB ↑ 74 ↓ 29
2018-01-06 U Королева при исполнении [01-02 из 02] (2017) WEB-DLRip от Files-x 1.08 GB ↑ 82 ↓ 19
2018-01-05 U Королева при исполнении [01-02 из 02] (2018) SATRip от GeneralFilm 1.12 GB ↑ 665 ↓ 175

Отзывы
Зарегистрируйтесь чтобы добавить комментарий.
Обратная связь
Copyleft ©