↑↓Torrent.by
Поиск
Логин: Регистрация
Пароль: Восстановить пароль
Загрузка...

Конор МакГрегор: Печально известный / Conor McGregor: Notorious (2017) BDRip 720p | L

Скачать konor-makgregor-pechalno-izvestnyy-conor-mcgregor-notorious-2017-bdrip-720p-l.torrent
U Магнитная ссылка Размер: 2.90 GB Раздают: 87 Качают: 108 Добавлен: 2018-01-18 20:32:00
Конор МакГрегор: Печально известный / Conor McGregor: Notorious (2017) BDRip 720p | L

Наименование: Конор МакГрегор: Печально известный
Оригинальное наименование: Conor McGregor: Notorious
Произведено: Ирландия
Категория: документальный
Режиссер постановщик: Гэвин Фитцджеральд
В главных ролях: Хосе Альдо, Ди Девлин, Нэйтан Диаз, Ариэль Хелвани, Джон Кавана, Артем Лобов, Конор МакГрегор, Катон Пендред, Оуэн Родди, Арнольд Шварценеггер

О фильме: Лента повествует о громком восхождении на Олимп ирландского бойца смешанных единоборств - Конора МакГрегора. Начинал паренёк в полнейшей бедноте. Он жил в мамином доме в гостевой комнате со своей девушкой. У него не было ни денег, ни влиятельных друзей - лишь талант и целеустремленность.
Теперь Конор получает огромные гонорары и живет на полную катушку. Однако головокружительные результаты пришли не сразу. Долгих четыре года он шел к заветной цели, творя историю собственными руками - без страха и сомнений.

Файл
Качество: BDRip 720p
Видео данные: MKV, 1280x536 (2:40:1), 23.976  fps,  4000 Кбит/с
Аудио данные: AC3, 2 ch, 640 Кбит/с
Перевод: Любительский многоголосый (GreenРай Studio)
Продолжительность: 01:30:47

Над релизом работали:
Состав дикторов: Дмитрий Кучеренко, Екатерина Костина, Тимур Бермудов
Руководитель проекта и координатор: Евгений Овчаренко
Организатор и координатор: Никита Марков
Пиар менеджер студии: Игорь Обухов
Техническая поддержка: Александр Методий

ВНИМАНИЕ! Присутствует реклама!

Релиз:


[+] Mediainfo
General
Unique ID                   : 230064763659603346678678218048534014233 (0xAD14DC9B85023CBFA7C1D5853138E919)
Complete name               : D:ВидеоConor.Mcgregor.Notorious.2017.P.BDRip.720p.GreenРай Studio.mkv
Format                      : Matroska
Format version              : Version 4 / Version 2
File size                   : 2.90 GiB
Duration                    : 1h 30mn
Overall bit rate mode       : Constant
Overall bit rate            : 4 569 Kbps
Encoded date                : UTC 2018-01-16 20:56:17
Writing application         : mkvmerge v8.3.0 ('Over the Horizon') 64bit
Writing library             : libebml v1.3.1 + libmatroska v1.4.2
DURATION                    : 01:30:52.928000000
NUMBER_OF_FRAMES            : 170404
NUMBER_OF_BYTES             : 436234240
_STATISTICS_WRITING_APP     : mkvmerge v8.3.0 ('Over the Horizon') 64bit
_STATISTICS_WRITING_DATE_UT : 2018-01-16 20:56:17
_STATISTICS_TAGS            : BPS DURATION NUMBER_OF_FRAMES NUMBER_OF_BYTES

Video
ID                          : 1
Format                      : AVC
Format/Info                 : Advanced Video Codec
Format profile              : Main@L3.1
Format settings, CABAC      : Yes
Format settings, ReFrames   : 3 frames
Codec ID                    : V_MPEG4/ISO/AVC
Duration                    : 1h 30mn
Bit rate mode               : Constant
Bit rate                    : 4 000 Kbps
Width                       : 1 280 pixels
Height                      : 536 pixels
Display aspect ratio        : 2.40:1
Frame rate mode             : Constant
Frame rate                  : 23.976 fps
Standard                    : NTSC
Color space                 : YUV
Chroma subsampling          : 4:2:0
Bit depth                   : 8 bits
Scan type                   : Progressive
Bits/(Pixel*Frame)          : 0.243
Stream size                 : 2.44 GiB (84%)
Language                    : English
Default                     : Yes
Forced                      : No
Color range                 : Limited

Audio
ID                          : 2
Format                      : AC-3
Format/Info                 : Audio Coding 3
Mode extension              : CM (complete main)
Format settings, Endianness : Big
Codec ID                    : A_AC3
Duration                    : 1h 30mn
Bit rate mode               : Constant
Bit rate                    : 640 Kbps
Channel(s)                  : 2 channels
Channel positions           : Front: L R
Sampling rate               : 48.0 KHz
Compression mode            : Lossy
Stream size                 : 416 MiB (14%)
Default                     : Yes
Forced                      : No



Скриншоты:
[+] Всего файлов в раздаче - 1:
Conor.Mcgregor.Notorious.2017.P.BDRip.720p.GreenРай Studio.mkv2.90 GB

Текущая раздача:
ДатаКомментарии    РазмерПиры
2018-01-18 U Конор МакГрегор: Печально известный / Conor McGregor: Notorious (2017) BDRip 720p | L 2.90 GB ↑ 87 ↓ 108

Показать еще раздачи по запросу конор:
2018-01-19 U Конор МакГрегор: Печально известный / Conor McGregor: Notorious (2017) HDRip | L 1.37 GB ↑ 213 ↓ 50
2017-11-24 U Конор МакГрегор: Печально известный / Conor McGregor: Notorious (2017) WEBRip | L2 1.37 GB ↑ 53 ↓ 23
2017-11-24 U Конор МакГрегор: Печально известный / Conor McGregor: Notorious (2017) WEBRip 720p | L2 2.63 GB ↑ 36 ↓ 18
2017-08-28 U Бокс. Флойд Мейвезер - Конор Макгрегор [Первый канал] [26.08] (2017) HDTVRip-HEVC 720p | 50 fps 1.21 GB ↑ 40 ↓ 25
2017-08-27 U Бокс. Флойд Мейвезер - Конор Макгрегор [Первый канал] [26.08] (2017) HDTVRip 1.13 GB ↑ 323 ↓ 81
2017-08-27 U Флойд Мейвезер - Конор Макгрегор [26.08.2017, Бокс, HDTVRip/720p/50fps, Первый HD, RU] 2.29 GB ↑ 1575 ↓ 442
2017-08-27 U Бокс. Флойд Мейвезер - Конор Макгрегор [26.08] (2017) WEBRip 720p 984.00 MB ↑ 59 ↓ 84

Отзывы
Зарегистрируйтесь чтобы добавить комментарий.
Обратная связь
Copyleft ©