↑↓Torrent.by
Поиск
Логин: Регистрация
Пароль: Восстановить пароль
Загрузка...

Скуби-Ду и Бэтмен: Храбрый и смелый / Scooby-Doo & Batman: the Brave and the Bold (2018) WEB-DL 1080р | L

Скачать skubi-du-i-betmen-hrabryy-smelyy-scooby-doo-batman-the-brave-and-bold-2018-web-dl-1080r-l.torrent
U Магнитная ссылка Размер: 2.94 GB Раздают: 103 Качают: 49 Добавлен: 2018-01-18 20:32:46
Скуби-Ду и Бэтмен: Храбрый и смелый / Scooby-Doo & Batman: the Brave and the Bold (2018) WEB-DL 1080р | L

Скуби-Ду и Бэтмен: Храбрый и смелый / Scooby-Doo & Batman: the Brave and the Bold

Страна: США
Производство: DC Entertainment, Hanna-Barbera Productions, Warner Bros. Animation
Год выпуска: 2018
Жанр:  мультфильм, ужасы, боевик, комедия, криминал, детектив, семейный
Продолжительность: 01:15:09

Режиссер: Джейк Касторена / Jake Castorena
Авторы сценария: Пол Джакоппо, Джеймс Такер

В ролях: Кейт Микуччи, Тара Стронг, Мэттью Лиллард, Николас Гест, Дидрих Бадер, Грэй ДеЛисл, Джеффри Комбс, Том Кенни, Джон Майкл Хиггинс

Описание: Бэтмен объединяется с друзьями Скуби-Ду, когда злодеи из обоих миров собираются нанести серьёзный ущерб городу...

Перевод: Любительский (многоголосый, закадровый) | «КОЛОБОК»
Субтитры: английские

Качество: WEB-DL 1080р
Формат: МКV
Видео кодек: AVC
Аудио кодек: АС3
Видео: 1912x1072 (16:9), 23.976 fps, MPEG-4 AVC ~5 022 kbps avg
Аудио №1: 48.0 kHz, AC3 Dolby Digital, 2/0 (L,R) ch, ~192 kbps | RUS | MVO
Аудио №2: 48.0 kHz, AC3 Dolby Digital, 3/2 (L,C,R,l,r) + LFE ch, ~384 kbps | ENG
Формат субтитров: UTF-8 Plain Text

Дата премьеры (мир): 9 января 2018

Семпл

Благодарность за работу со звуком: Нордер


[+] Media Info
General
Уникальный идентификатор                 : 214595892281377364969003775287058287326 (0xA171AA5D780145B5ABD725996A0CCADE)
Полное имя                               : Scooby-Doo and Batman The Brave and the Bold 2018 1080p WEB-DL.mkv
Формат                                   : Matroska
Версия формата                           : Version 4 / Version 2
Размер файла                             : 2,94 Гбайт
Продолжительность                        : 1 ч. 15 м.
Общий поток                              : 5600 Кбит/сек
Дата кодирования                         : UTC 2018-01-18 06:08:40
Программа кодирования                    : mkvmerge v15.0.0 ('Duel with the Devil') 64-bit
Библиотека кодирования                   : libebml v1.3.5 + libmatroska v1.4.5

Видео
Идентификатор                            : 1
Формат                                   : AVC
Формат/Информация                        : Advanced Video Codec
Профиль формата                          : High@L4
Параметр CABAC формата                   : Да
Параметр ReFrames формата                : 4 кадра
Идентификатор кодека                     : V_MPEG4/ISO/AVC
Продолжительность                        : 1 ч. 15 м.
Битрейт                                  : 5022 Кбит/сек
Ширина                                   : 1912 пикселей
Высота                                   : 1072 пикселя
Соотношение сторон                       : 16:9
Режим частоты кадров                     : Постоянный
Частота кадров                           : 23,976 кадра/сек
Цветовое пространство                    : YUV
Субдискретизация насыщенности            : 4:2:0
Битовая глубина                          : 8 бит
Тип развёртки                            : Прогрессивная
Бит/(Пиксели*Кадры)                      : 0.102
Размер потока                            : 2,64 Гбайт (90%)
Язык                                     : English
Default                                  : Да
Forced                                   : Нет
Цветовой диапазон                        : Limited
Основные цвета                           : BT.709
Характеристики трансфера                 : BT.709
Коэффициенты матрицы                     : BT.709

Аудио #1
Идентификатор                            : 2
Формат                                   : AC-3
Формат/Информация                        : Audio Coding 3
Расширение режима                        : CM (complete main)
Параметр Endianness формата              : Big
Идентификатор кодека                     : A_AC3
Продолжительность                        : 1 ч. 15 м.
Вид битрейта                             : Постоянный
Битрейт                                  : 192 Кбит/сек
Каналы                                   : 2 канала
Расположение каналов                     : Front: L R
Частота                                  : 48,0 КГц
Частота кадров                           : 31,250 кадров/сек (1536 spf)
Метод сжатия                             : С потерями
Размер потока                            : 103 Мбайт (3%)
Язык                                     : Russian
Default                                  : Да
Forced                                   : Нет

Аудио #2
Идентификатор                            : 3
Формат                                   : AC-3
Формат/Информация                        : Audio Coding 3
Расширение режима                        : CM (complete main)
Параметр Endianness формата              : Big
Идентификатор кодека                     : A_AC3
Продолжительность                        : 1 ч. 15 м.
Вид битрейта                             : Постоянный
Битрейт                                  : 384 Кбит/сек
Каналы                                   : 6 каналов
Расположение каналов                     : Front: L C R, Side: L R, LFE
Частота                                  : 48,0 КГц
Частота кадров                           : 31,250 кадров/сек (1536 spf)
Метод сжатия                             : С потерями
Размер потока                            : 206 Мбайт (7%)
Язык                                     : English
Default                                  : Нет
Forced                                   : Нет

Текст
Идентификатор                            : 4
Формат                                   : UTF-8
Идентификатор кодека                     : S_TEXT/UTF8
Идентификатор кодека/Информация          : UTF-8 Plain Text
Продолжительность                        : 1 ч. 11 м.
Битрейт                                  : 63 бит/сек
Count of elements                        : 1038
Размер потока                            : 33,2 Кбайт (0%)
Язык                                     : English
Default                                  : Нет
Forced                                   : Нет

Меню
00:00:00.000                             : en:1
00:10:33.000                             : en:2
00:22:40.000                             : en:3
00:31:15.000                             : en:4
00:41:52.000                             : en:5
00:53:45.000                             : en:6
01:03:07.000                             : en:7
01:12:08.000                             : en:8



Скриншоты:
[+] Всего файлов в раздаче - 1:
Scooby-Doo and Batman The Brave and the Bold 2018 1080p WEB-DL.mkv2.94 GB

Текущая раздача:
ДатаКомментарии    РазмерПиры
2018-01-18 U Скуби-Ду и Бэтмен: Храбрый и смелый / Scooby-Doo & Batman: the Brave and the Bold (2018) WEB-DL 1080р | L 2.94 GB ↑ 103 ↓ 49

Показать еще раздачи по запросу скуби:
2017-10-21 U Лего Скуби-Ду: Улётный пляж / Lego Scooby-Doo! Blowout Beach Bash (2017) BDRip от ExKinoRay | L 1.37 GB ↑ 152 ↓ 19
2017-08-13 U Скуби-ду! На диком западе / Scooby-Doo! Shaggy's Showdown (2017) WEB-DLRip от ExKinoRay | L 1.37 GB ↑ 92 ↓ 18
2017-05-23 U Скуби-ду! На диком западе / Scooby-Doo! Shaggy's Showdown (2017) WEB-DLRip от ImperiaFilm | L 744.34 MB ↑ 183 ↓ 42
2014-11-24 U Скуби-Ду: Франкен-монстр / Scooby-Doo! Frankencreepy (2014) BDRip 720p | Чистый звук 2.35 GB ↑ 541 ↓ 19
2014-04-14 U Скуби-Ду: Пираты на Борту / Scooby-Doo! Pirates Ahoy! (2006) WEB-DLRip от Deadmauvlad | D | Лицензия 746.62 MB ↑ 57 ↓ 19
2014-03-30 U Скуби-Ду! Тайна рестлмании / Scooby-Doo! WrestleMania Mystery (2014) HDRip | P 1.37 GB ↑ 275 ↓ 0
2014-03-18 U Скуби-Ду! Тайна рестлмании / Scooby-Doo! WrestleMania Mystery (2014) HDRip | L1 1.37 GB ↑ 275 ↓ 3

Отзывы
Зарегистрируйтесь чтобы добавить комментарий.
Обратная связь
Copyleft ©