↑↓Torrent.by
Поиск
Логин: Регистрация
Пароль: Восстановить пароль
Загрузка...

Движение вверх (2017) WEBRip-AVC

Скачать dvizhenie-vverh-2017-webrip-avc.torrent
U Магнитная ссылка Размер: 1.37 GB Раздают: 3543 Качают: 1598 Добавлен: 2018-01-24 19:59:46
Движение вверх (2017) WEBRip-AVC

Производство: Россия, Студия Тритэ
Жанр:  спорт, драма

Режиссер: Антон Мегердичев
Актеры: Владимир Машков, Андрей Смоляков, Иван Колесников, Кирилл Зайцев, Джон Сэвэдж, Марат Башаров, Александра Ревенко, Виктория Толстоганова, Сергей Гармаш, Джеймс Тратас

Описание:
Есть победы, которые меняют ход истории. Победы духа, победы страны, победы всего мира. Таким триумфом стали легендарные «три секунды» — выигрыш сборной СССР по баскетболу на роковой мюнхенской Олимпиаде 1972 г. Впервые за 36 лет была повержена «непобедимая» команда США. Никто даже помыслить не мог о том, что это возможно — обыграть великолепных непогрешимых американцев на Олимпийских играх!

Большое спасибо nnm-club > denver7979
Продолжительность: 02:13:00
Качество видео: WEBRip-AVC Семпл
Перевод: Не требуется (Русский) (нет перевода англоязычной речи)
Видео: AVC, 1024x432 (2.35:1), 24.000 fps, 1 275 Kbps (0.120 bit/pixel)
Аудио: AC-3, 44.1 KHz, 2 ch, 192 Kbps, CBR



[+] MediaInfo:

Общее
Уникальный идентификатор                 : 212520650243262779612392128671213796825 (0x9FE1FD087705DB21B02DDCE503E1BDD9)
Полное имя                               : C:UsersComputerDesktopDvizhenie Vverkh_h264.WEBDLRip.NNM-club.mkv
Формат                                   : Matroska
Версия формата                           : Version 2
Размер файла                             : 1,37 Гбайт
Продолжительность                        : 2 ч. 13 м.
Общий поток                              : 1469 Кбит/сек
Дата кодирования                         : UTC 2018-01-24 04:58:08
Программа кодирования                    : mkvmerge v6.1.0 ('Old Devil') built on Mar  4 2013 09:10:42
Библиотека кодирования                   : libebml v1.3.0 + libmatroska v1.4.0

Видео
Идентификатор                            : 1
Формат                                   : AVC
Формат/Информация                        : Advanced Video Codec
Профиль формата                          : High@L4.1
Параметр CABAC формата                   : Да
Параметр ReFrames формата                : 12 кадров
Идентификатор кодека                     : V_MPEG4/ISO/AVC
Продолжительность                        : 2 ч. 13 м.
Битрейт                                  : 1275 Кбит/сек
Ширина                                   : 1024 пикселя
Высота                                   : 432 пикселя
Соотношение сторон                       : 2,40:1
Режим частоты кадров                     : Постоянный
Частота кадров                           : 24,000 кадра/сек
Цветовое пространство                    : YUV
Субдискретизация насыщенности            : 4:2:0
Битовая глубина                          : 8 бит
Тип развёртки                            : Прогрессивная
Бит/(Пиксели*Кадры)                      : 0.120
Размер потока                            : 1,17 Гбайт (85%)
Библиотека кодирования                   : x264 core 130 r2273 b3065e6
Настройки программы                      : cabac=1 / ref=12 / deblock=1:-1:-1 / analyse=0x3:0x113 / me=umh / subme=10 / psy=1 / psy_rd=1.00:0.15 / mixed_ref=1 / me_range=32 / chroma_me=1 / trellis=2 / 8x8dct=1 / cqm=0 / deadzone=21,11 / fast_pskip=0 / chroma_qp_offset=-3 / threads=3 / lookahead_threads=1 / sliced_threads=0 / nr=0 / decimate=1 / interlaced=0 / bluray_compat=0 / constrained_intra=0 / bframes=6 / b_pyramid=2 / b_adapt=2 / b_bias=0 / direct=3 / weightb=1 / open_gop=0 / weightp=2 / keyint=250 / keyint_min=23 / scenecut=40 / intra_refresh=0 / rc_lookahead=40 / rc=2pass / mbtree=1 / bitrate=1275 / ratetol=1.0 / qcomp=0.60 / qpmin=0 / qpmax=69 / qpstep=4 / cplxblur=20.0 / qblur=0.5 / ip_ratio=1.40 / aq=1:1.00
Default                                  : Да
Forced                                   : Нет

Аудио
Идентификатор                            : 2
Формат                                   : AC-3
Формат/Информация                        : Audio Coding 3
Расширение режима                        : CM (complete main)
Параметр Endianness формата              : Big
Идентификатор кодека                     : A_AC3
Продолжительность                        : 2 ч. 13 м.
Вид битрейта                             : Постоянный
Битрейт                                  : 192 Кбит/сек
Каналы                                   : 2 канала
Расположение каналов                     : Front: L R
Частота                                  : 44,1 КГц
Частота кадров                           : 28,711 кадров/сек (1536 spf)
Битовая глубина                          : 16 бит
Метод сжатия                             : С потерями
Размер потока                            : 184 Мбайт (13%)
Default                                  : Да
Forced                                   : Нет



Скриншоты:
[+] Всего файлов в раздаче - 1:
Dvizhenie Vverkh_h264.WEBDLRip.NNM-club.mkv1.37 GB

Текущая раздача:
ДатаКомментарии    РазмерПиры
2018-01-24 U Движение вверх (2017) WEBRip-AVC 1.37 GB ↑ 3543 ↓ 1598

Показать еще раздачи по запросу движение:
2018-01-29 U Движение вверх (2017) WEBRip от ExKinoRay 806.04 MB ↑ 193 ↓ 71
2018-01-28 U Движение вверх (2017) WEBRip от ExKinoRay 2.18 GB ↑ 1282 ↓ 295
2018-01-28 U Движение вверх (2017) WEBRip от Scarabey 1.45 GB ↑ 809 ↓ 290
2018-01-27 U Сергей Белов - Движение вверх (2011) FB2, PDF, DJVU 7.11 MB ↑ 53 ↓ 20
2018-01-27 U Движение вверх (2017) WEBRip от MegaPeer 1К1.46 GB ↑ 489 ↓ 193
2018-01-26 U Движение вверх (2017) WEBRip 720p от HDReactor 1К5.66 GB ↑ 3132 ↓ 1944
2014-12-26 U Одно движение Божье / God's One Move (2014) BDRip-AVC от MediaClub 2.17 GB ↑ 648 ↓ 285

Отзывы
Зарегистрируйтесь чтобы добавить комментарий.
Обратная связь
Copyleft ©