↑↓Torrent.by
Поиск
Логин: Регистрация
Пароль: Восстановить пароль
Загрузка...

Я был спутником Солнца (1959) VHSRip-AVC от New-Team

Скачать ya-byl-sputnikom-solnca-1959-vhsrip-avc-ot-new-team.torrent
U Магнитная ссылка Размер: 744.70 MB Раздают: 81 Качают: 7 Добавлен: 2018-01-25 06:43:52
Я был спутником Солнца (1959) VHSRip-AVC от New-Team

Страна: СССР
Производство: Моснаучфильм

Жанр:  фантастика
Год выпуска: 1959
Продолжительность: 01:02:23

Перевод: Не требуется
Cубтитры: нет
Оригинальная аудиодорожка: русский

Режиссер: Виктор Моргенштерн

В ролях:
Павел Махотин, Владимир Емельянов, Георгий Шамшурин, Анатолий Шамшурин...
Об актёрах подробней

Описание:
Рассказ ведется от имени молодого ученого, который пишет дневник. Ключевым эпизодом воспоминаний Андрея становится сюжет об ученом Игоре Петровиче (Владимир Емельянов), первом разведчике трассы к Солнцу и ближайшем друге отца, конструктора космических кораблей. Попав в полосу непроходимых зон, космический корабль тогда потерял связь с Землей и не вернулся. Спустя двадцать лет Андрей, в лаборатории которого успешно завершились испытания защитных материалов, решает повторить подвиг своего учителя.



[+] MediaInfo

Общее
Полное имя                               : Ya.byl.sputnikom.solnca.1959.VHSRip_[New-team]_by_AVP_Studio.mkv
Формат                                   : Matroska
Версия формата                           : Version 2
Размер файла                             : 745 Мбайт
Продолжительность                        : 1 ч. 2 м.
Общий поток                              : 1669 Кбит/сек
Дата кодирования                         : UTC 2018-01-21 14:47:45
Программа кодирования                    : mkvmerge v6.1.0 ('Old Devil') built on Mar  4 2013 09:10:42
Библиотека кодирования                   : libebml v1.3.0 + libmatroska v1.4.0

Видео
Идентификатор                            : 1
Формат                                   : AVC
Формат/Информация                        : Advanced Video Codec
Профиль формата                          : High@L4.1
Настройки формата                        : CABAC / 10 Ref Frames
Параметр CABAC формата                   : Да
Параметр RefFrames формата               : 10 кадров
Идентификатор кодека                     : V_MPEG4/ISO/AVC
Продолжительность                        : 1 ч. 2 м.
Битрейт                                  : 1475 Кбит/сек
Ширина                                   : 688 пикселей
Высота                                   : 570 пикселей
Соотношение сторон                       : 4:3
Режим частоты кадров                     : Постоянный
Частота кадров                           : 25,000 кадров/сек
Цветовое пространство                    : YUV
Субдискретизация насыщенности            : 4:2:0
Битовая глубина                          : 8 бит
Тип развёртки                            : Прогрессивная
Бит/(Пиксели*Кадры)                      : 0.150
Размер потока                            : 644 Мбайт (87%)
Библиотека кодирования                   : x264 core 130 r2273 b3065e6
Настройки программы                      : cabac=1 / ref=10 / deblock=1:-2:-1 / analyse=0x3:0x113 / me=umh / subme=10 / psy=1 / psy_rd=1.00:0.00 / mixed_ref=1 / me_range=32 / chroma_me=1 / trellis=2 / 8x8dct=1 / cqm=0 / deadzone=21,11 / fast_pskip=1 / chroma_qp_offset=-2 / threads=6 / lookahead_threads=1 / sliced_threads=0 / nr=0 / decimate=0 / interlaced=0 / bluray_compat=0 / constrained_intra=0 / bframes=8 / b_pyramid=2 / b_adapt=2 / b_bias=0 / direct=3 / weightb=1 / open_gop=0 / weightp=2 / keyint=250 / keyint_min=25 / scenecut=40 / intra_refresh=0 / rc=2pass / mbtree=0 / bitrate=1475 / ratetol=1.0 / qcomp=0.60 / qpmin=0 / qpmax=69 / qpstep=4 / cplxblur=20.0 / qblur=0.5 / ip_ratio=1.40 / pb_ratio=1.30 / aq=1:1.00
Default                                  : Да
Forced                                   : Нет

Аудио
Идентификатор                            : 2
Формат                                   : AC-3
Формат/Информация                        : Audio Coding 3
Идентификатор кодека                     : A_AC3
Продолжительность                        : 1 ч. 2 м.
Вид битрейта                             : Постоянный
Битрейт                                  : 192 Кбит/сек
Каналы                                   : 2 канала
Расположение каналов                     : Front: L R
Частота                                  : 48,0 КГц
Частота кадров                           : 31,250 кадров/сек (1536 SPF)
Битовая глубина                          : 16 бит
Метод сжатия                             : С потерями
Размер потока                            : 85,7 Мбайт (12%)
Default                                  : Да
Forced                                   : Нет



Скриншоты:
[+] Всего файлов в раздаче - 1:
Ya.byl.sputnikom.solnca.1959.VHSRip-AVC_[New-team]_by_AVP_Studio.mkv744.70 MB

Отзывы
zarubindb
Обезьяна повторил подвиг?

Зарегистрируйтесь чтобы добавить комментарий.
Обратная связь
Copyleft ©