↑↓torrent.by
Поиск
Логин: Регистрация
Пароль: Восстановить пароль

Робот, я люблю тебя? (2021) WEB-DL 1080p от ExKinoRay | КиноПоиск HD

Скачать robot-ya-lyublyu-tebya-2021-web-dl-1080p-ot-exkinoray-kinopoisk-hd.torrent
U Магнитная ссылка Размер: 2.26 GB Раздают: 7 Качают: 1 Добавлен: 2021-08-10 20:58:14
Робот, я люблю тебя? (2021) WEB-DL 1080p от ExKinoRay | КиноПоиск HD

Оригинальное название: Робот, я люблю тебя?
Год выпуска: 2021
Жанр:  Документальный, научно-популярный
Режиссер: Юлия Киселева

О фильме:
Антропоморфные роботы все больше внедряются в нашу жизнь: встречают нас на стойках, обучают детей и даже живут в семьях в качестве компаньонов. Ученые пытаются сделать роботов максимально похожими на человека. В конце 80-х ученые, исследуя эмоциональную реакцию людей на роботов, обнаружили «эффект зловещей долины»: самые человекоподобные роботы вызывали у людей неприязнь и даже страх. Но что будет, когда они станут неотличимы от человека? И станут ли?

Страна: Россия
Продолжительность: 01:00:09
Перевод: Не требуется

Формат: MKV
Качество: WEB-DL 1080p
Видео: MPEG-4 AVC, 1920x1080 (16:9), 25.000 fps, 5182 Кb/s, 0.107 bit/pixel
Аудио : 48 kHz, AC3, 2.0, 192 Kbps | RUS |

Релиз:

Автор релиза:


[+] ОтчетМедиаИнфо


General
Unique ID                   : 217789627971507451832416977874226198654 (0xA3D8C1B11C0F8B4C9838B360A453387E)
Complete name               : F:Robot.ya.lublu.tiebya.2021.WEB-DL.1080p.ExKinoRay.mkv
Format                      : Matroska
Format version              : Version 4
File size                   : 2.26 GiB
Duration                    : 1 h 0 min
Overall bit rate            : 5 376 kb/s
Movie name                  : Robot ya lublu tiebya? 2021 from ExKinoRay
Encoded date                : UTC 2021-08-08 04:49:41
Writing application         : mkvmerge v7.3.0 ('Nouages') 64bit built on Oct 22 2014 18:53:34
Writing library             : libebml v1.3.0 + libmatroska v1.4.1

Video
ID                          : 1
Format                      : AVC
Format/Info                 : Advanced Video Codec
Format profile              : High@L4
Format settings             : CABAC / 4 Ref Frames
Format settings, CABAC      : Yes
Format settings, Reference  : 4 frames
Codec ID                    : V_MPEG4/ISO/AVC
Duration                    : 1 h 0 min
Bit rate                    : 5 182 kb/s
Nominal bit rate            : 6 000 kb/s
Width                       : 1 920 pixels
Height                      : 1 012 pixels
Display aspect ratio        : 1.897
Frame rate mode             : Constant
Frame rate                  : 25.000 FPS
Color space                 : YUV
Chroma subsampling          : 4:2:0
Bit depth                   : 8 bits
Scan type                   : Progressive
Bits/(Pixel*Frame)          : 0.107
Stream size                 : 2.18 GiB (96%)
Writing library             : x264 core 157 r2969 d4099dd
Encoding settings           : cabac=1 / ref=4 / deblock=1:0:0 / analyse=0x3:0x133 / me=umh / subme=10 / psy=1 / psy_rd=1.00:0.00 / mixed_ref=1 / me_range=24 / chroma_me=1 / trellis=2 / 8x8dct=1 / cqm=0 / deadzone=21,11 / fast_pskip=1 / chroma_qp_offset=-2 / threads=32 / lookahead_threads=5 / sliced_threads=0 / nr=0 / decimate=1 / interlaced=0 / bluray_compat=0 / stitchable=1 / constrained_intra=0 / bframes=8 / b_pyramid=2 / b_adapt=2 / b_bias=0 / direct=3 / weightb=1 / open_gop=0 / weightp=2 / keyint=200 / keyint_min=100 / scenecut=40 / intra_refresh=0 / rc_lookahead=60 / rc=2pass / mbtree=1 / bitrate=6000 / ratetol=1.0 / qcomp=0.60 / qpmin=0 / qpmax=69 / qpstep=4 / cplxblur=20.0 / qblur=0.5 / vbv_maxrate=6600 / vbv_bufsize=1100 / nal_hrd=none / filler=0 / ip_ratio=1.40 / aq=1:1.00
Language                    : Russian
Default                     : Yes
Forced                      : No

Audio
ID                          : 2
Format                      : AC-3
Format/Info                 : Audio Coding 3
Commercial name             : Dolby Digital
Codec ID                    : A_AC3
Duration                    : 1 h 0 min
Bit rate mode               : Constant
Bit rate                    : 192 kb/s
Channel(s)                  : 2 channels
Channel layout              : L R
Sampling rate               : 48.0 kHz
Frame rate                  : 31.250 FPS (1536 SPF)
Compression mode            : Lossy
Stream size                 : 82.6 MiB (4%)
Language                    : Russian
Service kind                : Complete Main
Default                     : Yes
Forced                      : No




Скриншоты:
[+] Всего файлов в раздаче - 1:

Похожие раздачи по запросу - робот:
2021-08-11 U Моя мама — робот [01-02 из 02] (2017) WEB-DLRip от Files-x 1.33 GB ↑ 114 ↓ 13
2021-08-10 U Моя мама — робот [01-02 из 02] (2017) WEBRip-AVC от Files-x 1.31 GB ↑ 31 ↓ 14

Отзывы
Зарегистрируйтесь чтобы добавить комментарий.
Загрузите программу
  byTorrent
Обратная связь
Copyleft ©