↑↓Torrent.by
Поиск
Логин: Регистрация
Пароль: Восстановить пароль
Загрузка...

Виктория и Абдул / Victoria and Abdul (2017) BDRip 1080p от qqss44 & MegaPeer | Лицензия

Скачать viktoriya-i-abdul-victoria-and-2017-bdrip-1080p-ot-qqss44-megapeer-licenziya.torrent
U Магнитная ссылка Размер: 6.56 GB Раздают: 48 Качают: 38 Добавлен: 2018-01-26 06:41:14
Виктория и Абдул / Victoria and Abdul (2017) BDRip 1080p от qqss44 & MegaPeer | Лицензия

Анонсы 1080p от qqss44

Информация о фильме
Название: Виктория и Абдул
Оригинальное название: Victoria and Abdul
Год выпуска: 2017
Жанр: Драма, биография, история
Режиссер: Стивен Фрирз
В ролях: Джуди Денч, Али Фазал, Тим Пиготт-Смит, Эдди Иззард, Адиль Ахтар, Майкл Гэмбон, Пол Хиггинс, Оливия Уильямс, Фенелла Вулгар, Джулиан Уэдэм

О фильме:
Взойдя на престол в возрасте 18-ти лет, Виктория стала королевой Великобритании, Ирландии, а позже и императрицей Индии. Среди бесчисленных подданных короны был красавец Абдул Карим. Появившись, казалось бы, из ниоткуда, он превратился в очень влиятельного человека при дворе. Ему завидовали, против него плели интриги, а их отношения с королевой обсуждали не только в Англии, но и во всем мире.

Страна: Великобритания, США
Студия: Perfect World Pictures
Продолжительность: 01:51:10
Перевод: Дублированный | Лицензия

Файл
Формат: MKV, BDRip 1080p
Видео: MPEG-4 AVC, 8000 Кбит/с, 1920x804
Aудио#1: [RUS] AC3 | 48 KHz | 5.1 (Front: L С R Side: L R) + LFE | ~448 kbps
Субтитры: русские форсированные
Релиз от:


[+] МИ

Общее
Уникальный идентификатор                 : 246708942174080889462104507954636085818 (0xB99A69F73169B69DAA5EBE7008615A3A)
Полное имя                               : H:Victoria.and.Abdul.(2017).BDRip.1080p.MegaPeer.(qqss44).mkv
Формат                                   : Matroska
Версия формата                           : Version 2
Размер файла                             : 6,56 Гбайт
Продолжительность                        : 1 ч. 51 м.
Общий поток                              : 8441 Кбит/сек
Название фильма                          : Victoria.and.Abdul.(2017).BDRip.1080p.MegaPeer.(qqss44)
Дата кодирования                         : UTC 2018-01-25 19:39:48
Программа кодирования                    : mkvmerge v5.8.0 ('No Sleep / Pillow') built on Sep  2 2012 15:37:04
Библиотека кодирования                   : libebml v1.2.3 + libmatroska v1.3.0

Видео
Идентификатор                            : 1
Формат                                   : AVC
Формат/Информация                        : Advanced Video Codec
Профиль формата                          : High@L4.1
Параметр CABAC формата                   : Да
Параметр ReFrames формата                : 5 кадров
Идентификатор кодека                     : V_MPEG4/ISO/AVC
Продолжительность                        : 1 ч. 51 м.
Битрейт                                  : 8000 Кбит/сек
Ширина                                   : 1920 пикселей
Высота                                   : 804 пикселя
Соотношение сторон                       : 2,40:1
Режим частоты кадров                     : Постоянный
Частота кадров                           : 23,976 (24000/1001) кадра/сек
Цветовое пространство                    : YUV
Субдискретизация насыщенности            : 4:2:0
Битовая глубина                          : 8 бит
Тип развёртки                            : Прогрессивная
Бит/(Пиксели*Кадры)                      : 0.216
Размер потока                            : 6,08 Гбайт (93%)
Библиотека кодирования                   : x264 core 152 r2851kMod ba24899
Настройки программы                      : cabac=1 / ref=5 / deblock=1:-3:-3 / analyse=0x3:0x113 / me=umh / subme=11 / psy=1 / fade_compensate=0.00 / psy_rd=1.00:0.00 / mixed_ref=1 / me_range=32 / chroma_me=1 / trellis=2 / 8x8dct=1 / cqm=0 / deadzone=21,11 / fast_pskip=0 / chroma_qp_offset=-2 / threads=12 / lookahead_threads=2 / sliced_threads=0 / nr=0 / decimate=0 / interlaced=0 / bluray_compat=0 / constrained_intra=0 / bframes=8 / b_pyramid=2 / b_adapt=2 / b_bias=0 / direct=3 / weightb=1 / open_gop=0 / weightp=2 / keyint=240 / keyint_min=23 / scenecut=40 / intra_refresh=0 / rc_lookahead=40 / rc=2pass / mbtree=0 / bitrate=8000 / ratetol=1.0 / qcomp=0.65 / qpmin=0 / qpmax=69 / qpstep=4 / cplxblur=20.0 / qblur=0.5 / vbv_maxrate=50000 / vbv_bufsize=62500 / nal_hrd=none / filler=0 / ip_ratio=1.40 / pb_ratio=1.30 / aq=3:0.80
Язык                                     : English
Default                                  : Да
Forced                                   : Нет

Аудио
Идентификатор                            : 2
Формат                                   : AC-3
Формат/Информация                        : Audio Coding 3
Расширение режима                        : CM (complete main)
Параметр Endianness формата              : Big
Идентификатор кодека                     : A_AC3
Продолжительность                        : 1 ч. 51 м.
Вид битрейта                             : Постоянный
Битрейт                                  : 448 Кбит/сек
Каналы                                   : 6 каналов
Расположение каналов                     : Front: L C R, Side: L R, LFE
Частота                                  : 48,0 КГц
Частота кадров                           : 31,250 кадров/сек (1536 spf)
Метод сжатия                             : С потерями
Размер потока                            : 356 Мбайт (5%)
Язык                                     : Russian
Default                                  : Да
Forced                                   : Нет

Текст
Идентификатор                            : 3
Формат                                   : UTF-8
Идентификатор кодека                     : S_TEXT/UTF8
Идентификатор кодека/Информация          : UTF-8 Plain Text
Заголовок                                : FORCED
Язык                                     : Russian
Default                                  : Да
Forced                                   : Нет

Меню
00:00:00.000                             : en:Chapter 01
00:05:41.132                             : en:Chapter 02
00:10:37.803                             : en:Chapter 03
00:15:44.026                             : en:Chapter 04
00:20:05.829                             : en:Chapter 05
00:28:20.699                             : en:Chapter 06
00:35:27.208                             : en:Chapter 07
00:41:05.045                             : en:Chapter 08
00:49:15.160                             : en:Chapter 09
00:54:43.488                             : en:Chapter 10
00:59:56.843                             : en:Chapter 11
01:07:12.111                             : en:Chapter 12
01:12:12.745                             : en:Chapter 13
01:17:47.162                             : en:Chapter 14
01:21:20.792                             : en:Chapter 15
01:27:25.031                             : en:Chapter 16
01:30:56.909                             : en:Chapter 17
01:38:49.465                             : en:Chapter 18
01:42:31.520                             : en:Chapter 19
01:44:27.594                             : en:Chapter 20




Скриншоты:
[+] Всего файлов в раздаче - 1:
Victoria.and.Abdul.(2017).BDRip.1080p.MegaPeer.(qqss44).mkv6.56 GB

Текущая раздача:
ДатаКомментарии    РазмерПиры
2018-01-26 U Виктория и Абдул / Victoria and Abdul (2017) BDRip 1080p от qqss44 & MegaPeer | Лицензия 6.56 GB ↑ 48 ↓ 38

Показать еще раздачи по запросу виктория:
2018-02-04 U Виктория и Абдул / Victoria & Abdul (2017) BDRip от ExKinoRay | Лицензия 1.46 GB ↑ 81 ↓ 24
2018-01-29 U Виктория и Абдул / Victoria & Abdul (2017) HDRip от Scarabey | Лицензия 1.45 GB ↑ 66 ↓ 26
2018-01-28 U Виктория и Абдул / Victoria & Abdul / Victoria and Abdul (2017) BDRip-AVC от New-Team | Лицензия 2.22 GB ↑ 70 ↓ 27
2018-01-28 U Виктория и Абдул / Victoria & Abdul / Victoria and Abdul (2017) BDRip-AVC от New-Team | Лицензия 1.46 GB ↑ 52 ↓ 15
2018-01-26 U Виктория и Абдул / Victoria and Abdul (2017) BDRip 1080p | Лицензия 12.59 GB ↑ 108 ↓ 101
2018-01-26 U Виктория и Абдул / Victoria and Abdul (2017) HDRip от MegaPeer | Лицензия 745.63 MB ↑ 155 ↓ 43
2018-01-26 U Виктория и Абдул / Victoria and Abdul (2017) BDRip 720p | Лицензия 5.26 GB ↑ 115 ↓ 74

Отзывы
Зарегистрируйтесь чтобы добавить комментарий.
Обратная связь
Copyleft ©