↑↓Torrent.by
Поиск
Логин: Регистрация
Пароль: Восстановить пароль
Загрузка...

Странник (2017) WEBRip от Portablius

Скачать strannik-2017-webrip-ot-portablius.torrent
U Магнитная ссылка Размер: 694.99 MB Раздают: 48 Качают: 12 Добавлен: 2018-01-26 06:41:42
Странник (2017) WEBRip от Portablius

Название: Странник
Год выхода: 2017
Жанр: Драма, арт-хаус
Режиссеры: Денис Колонтай, Иван Качалин, Дмитрий Глазовский
В ролях: Иван Качалин, Денис Колонтай, Иван Степанов, Максим Дурманов, Виктор Буланкин, Дмитрий Витер, Дмитрий Глазовский, Михаил Смирнов, Маргарита Куклина

О фильме: Никто никогда не встречал Отшельника, а если и встречал, то не узнавал его в лицо. Его приезд всегда инициирует некий «принцип домино», «лавину» событий, что меняет всё до неузнаваемости. Но в этом странном месте, под названием Станция, его уже ожидают. Поиски Бога, смысла и способа жизни, себя и своего места в этом жестоком месте делают из людей Странников, тех, кто ни на миг не смыкает глаз и продолжает вечный поиск.

Страна: Россия
Студия: Творческое объединение «CineFOG»
Продолжительность: 01:25:00
Перевод: Не Требуется
Субтитры: Нет

Файл
Кодек: XviD
Качество: WEBRip
Видео: 688x384 (1.79:1), 25 fps, XviD build 73 ~1001 kbps avg, 0.15 bit/pixel
Звук: 48 kHz, MPEG Layer 3, 2 ch, ~128.00 kbps avg


[+] MediaInfo
General
Complete name               : Strannik.2017.WEBRip.ot.Portablius.avi
Format                      : AVI
Format/Info                 : Audio Video Interleave
File size                   : 695 MiB
Duration                    : 1 h 25 min
Overall bit rate            : 1 139 kb/s
Writing application         : VirtualDubMod 1.5.10.3 | www.virtualdub-fr.org || (build 2550/release)
Writing library             : VirtualDubMod build 2550/release

Video
ID                          : 0
Format                      : MPEG-4 Visual
Format profile              : Advanced Simple@L5
Format settings, BVOP       : 1
Format settings, QPel       : No
Format settings, GMC        : No warppoints
Format settings, Matrix     : Custom
Codec ID                    : XVID
Codec ID/Hint               : XviD
Duration                    : 1 h 25 min
Bit rate                    : 1 002 kb/s
Width                       : 688 pixels
Height                      : 384 pixels
Display aspect ratio        : 16:9
Frame rate                  : 25.000 FPS
Color space                 : YUV
Chroma subsampling          : 4:2:0
Bit depth                   : 8 bits
Scan type                   : Progressive
Compression mode            : Lossy
Bits/(Pixel*Frame)          : 0.152
Stream size                 : 611 MiB (88%)
Writing library             : XviD 73

Audio
ID                          : 1
Format                      : MPEG Audio
Format version              : Version 1
Format profile              : Layer 3
Codec ID                    : 55
Codec ID/Hint               : MP3
Duration                    : 1 h 25 min
Bit rate mode               : Constant
Bit rate                    : 128 kb/s
Channel(s)                  : 2 channels
Sampling rate               : 48.0 kHz
Compression mode            : Lossy
Stream size                 : 78.1 MiB (11%)
Alignment                   : Aligned on interleaves
Interleave, duration        : 40  ms (1.00 video frame)
Interleave, preload duratio : 504  ms
Writing library             : LAME3.99r
Encoding settings           : -m s -V 4 -q 2 -lowpass 17 -b 128




Скриншоты:
[+] Всего файлов в раздаче - 1:
Strannik.2017.WEBRip.ot.Portablius.avi694.99 MB

Текущая раздача:
ДатаКомментарии    РазмерПиры
2018-01-26 U Странник (2017) WEBRip от Portablius 694.99 MB ↑ 48 ↓ 12

Показать еще раздачи по запросу странник:
2018-01-30 U Ярослав Гжендович - Владыка ледяного сада 1. Ночной Странник (2018) MP3 895.38 MB ↑ 110 ↓ 19
2018-01-25 U Странник (2017) WEBRip 720p от Files-x 1К1.64 GB ↑ 209 ↓ 30
2018-01-25 U Странник (2017) WEBRip-AVC от Files-x 1.37 GB ↑ 62 ↓ 21
2018-01-24 U Странник (2017) WEBRip от Files-x 1.37 GB ↑ 183 ↓ 105
2017-10-30 U Планетарианка: Звездный странник / Planetarian: Hoshi no Hito (2016) BDRip 720p | AniDub 2.01 GB ↑ 108 ↓ 10
2014-06-27 U Странник / Путник / Путешественник / El caminante / The Traveller (1979) DVDRip-AVC 1.45 GB ↑ 30 ↓ 26
2014-05-22 U Андрей и Мария Круз - На пороге тьмы 4, Странник (Пролог + 1-18 гл из ?) [2014, MP3] 405.58 MB ↑ 50 ↓ 15

Отзывы
Зарегистрируйтесь чтобы добавить комментарий.
Обратная связь
Copyleft ©