↑↓Torrent.by
Поиск
Логин: Регистрация
Пароль: Восстановить пароль
Загрузка...

Бэтмен: Готэм в газовом свете / Batman: Gotham by Gaslight (2018) WEBRip 720p | ZM-SHOW

Скачать betmen-gotem-v-gazovom-svete-batman-gotham-by-gaslight-2018-webrip-720p-zm-show.torrent
U Магнитная ссылка Размер: 2.40 GB Раздают: 137 Качают: 78 Добавлен: 2018-01-26 15:38:20
Бэтмен: Готэм в газовом свете / Batman: Gotham by Gaslight (2018) WEBRip 720p | ZM-SHOW

Название: Бэтмен: Готэм в газовом свете
Оригинальное название: Batman: Gotham by Gaslight | ZM-SHOW
Год выхода: 2018
Жанр: боевик, детектив, история, криминал, мультфильмы, приключения, фэнтези
Режиссер: Сэм Лью
В ролях: Брюс Гринвуд, Энтони Хэд, Скотт Гордон-Паттерсон, Грэй ДеЛисл, Кари Вурер, Линкольн Мелчер, Юрий Ловенталь, Джон Ди Маджио, Дженнифер Карпентер, Тара Стронг и другие

О фильме:
В альтернативной ситуации, в 1889 г., Брюс Уэйн возвратится в Готэм из своего странствия по Европе. Городок викторианской эпохи всё так же притягивает злоумышленников. Цепочка таинственных и бесчеловечных убийств вынуждает обитателей предполагать, что киллер — Бэтмен. Тёмному Рыцарю кидает вызов самый знаменитый маньяк XIX столетия — Джек-потрошитель

Перевод на русский: Агата Клинцова
Закадровые голоса: Дмитрий Лунев, Дмитрий Рыбин, Владислав Данилов, Полина Косаткина

Присутствует реклама!

Страна: США
Студия: WB
Продолжительность: 01:17:02
Перевод: Любительский многоголосый (ZM-SHOW)

Файл
Кодек: AVC, 3995 kbps
Качество: WEBRip 720p
Видео: 1280x720
Звук: AAC, 448 kbps, 2 ch

MediaInfo

Релиз от: ZM-SHOW


[+] Скрытый текст
Format                      : MPEG-4
Format profile              : Base Media / Version 2
Codec ID                    : mp42 (mp42/isom)
File size                   : 2.40 GiB
Duration                    : 1 h 17 min
Overall bit rate mode       : Constant
Overall bit rate            : 4 447 kb/s
Encoded date                : UTC 2018-01-26 06:59:24
Tagged date                 : UTC 2018-01-26 06:59:24

Video
ID                          : 2
Format                      : AVC
Format/Info                 : Advanced Video Codec
Format profile              : Main@L3.2
Format settings, CABAC      : Yes
Format settings, ReFrames   : 3 frames
Format settings, GOP        : M=4, N=15
Codec ID                    : avc1
Codec ID/Info               : Advanced Video Coding
Duration                    : 1 h 17 min
Source duration             : 1 h 17 min
Bit rate mode               : Constant
Bit rate                    : 4 000 kb/s
Width                       : 1 280 pixels
Height                      : 720 pixels
Display aspect ratio        : 16:9
Frame rate mode             : Constant
Frame rate                  : 23.976 (24000/1001) FPS
Standard                    : NTSC
Color space                 : YUV
Chroma subsampling          : 4:2:0
Bit depth                   : 8 bits
Scan type                   : Progressive
Bits/(Pixel*Frame)          : 0.181
Stream size                 : 2.16 GiB (90%)
Source stream size          : 2.16 GiB (90%)
Language                    : English
Encoded date                : UTC 2018-01-26 06:59:24
Tagged date                 : UTC 2018-01-26 06:59:24
Color range                 : Limited

Audio
ID                          : 1
Format                      : AAC
Format/Info                 : Advanced Audio Codec
Format profile              : LC
Codec ID                    : 40
Duration                    : 1 h 17 min
Bit rate mode               : Constant
Bit rate                    : 448 kb/s
Channel(s)                  :  channel0
Channel(s)_Original         : 2 channels
Channel positions           : Front: L R
Sampling rate               : 48.0 kHz
Frame rate                  : 46.875 FPS (1024 spf)
Compression mode            : Lossy
Stream size                 : 248 MiB (10%)
Language                    : English
Encoded date                : UTC 2018-01-26 06:59:24
Tagged date                 : UTC 2018-01-26 06:59:24



Скриншоты:
[+] Всего файлов в раздаче - 1:
Batman.Gotham.by.Gaslight.zmshow.mp42.40 GB

Текущая раздача:
ДатаКомментарии    РазмерПиры
2018-01-26 U Бэтмен: Готэм в газовом свете / Batman: Gotham by Gaslight (2018) WEBRip 720p | ZM-SHOW 2.40 GB ↑ 137 ↓ 78

Показать еще раздачи по запросу бэтмен:
2018-02-10 U Бэтмен: Готэм в газовом свете / Batman: Gotham by Gaslight (2018) WEBRip от Portablius | Flarrow Films 697.62 MB ↑ 66 ↓ 18
2018-02-05 U Бэтмен: Готэм в газовом свете / Batman: Gotham by Gaslight (2018) BDRip 720p от potroks | L 2.06 GB ↑ 116 ↓ 47
2018-02-05 U Бэтмен: Готэм в газовом свете / Batman: Gotham by Gaslight (2018) WEBRip 720p | Flarrow Films 2.39 GB ↑ 339 ↓ 140
2018-01-18 U Скуби-Ду и Бэтмен: Храбрый и смелый / Scooby-Doo & Batman: the Brave and the Bold (2018) WEB-DL 1080р | L 2.94 GB ↑ 103 ↓ 47
2018-01-11 U Бэтмен против Двуликого / Batman vs. Two-Face (2017) BDRip 720p | L 2.34 GB ↑ 51 ↓ 14
2018-01-11 U Бэтмен против Двуликого / Batman vs. Two-Face (2017) HDRip | L 1.31 GB ↑ 83 ↓ 31
2017-08-24 U Бэтмен и Харли Квинн / Batman and Harley Quinn (2017) BDRip 1080p | ZM-SHOW 3.62 GB ↑ 147 ↓ 25

Отзывы
Зарегистрируйтесь чтобы добавить комментарий.
Обратная связь
Copyleft ©