↑↓Torrent.by
Поиск
Логин: Регистрация
Пароль: Восстановить пароль
Загрузка...

К 80-летию Владимира Высоцкого. В гости к Богу не бывает опозданий (2018) HDTV 1080i от NNMClub

Скачать k-80-letiyu-vladimira-vysockogo-v-gosti-bogu-ne-byvaet-opozdaniy-2018-hdtv-1080i-ot-nnmclub.torrent
U Магнитная ссылка Размер: 4.32 GB Раздают: 42 Качают: 25 Добавлен: 2018-01-28 08:35:08
К 80-летию Владимира Высоцкого. В гости к Богу не бывает опозданий (2018) HDTV 1080i от NNMClub

Название: К 80-летию Владимира Высоцкого «В гости к Богу не бывает опозданий…»
Год выхода: 2018
Жанр: Документальный
Режиссер: Александр Рогаткин

О фильме:
25 января 2018 года Владимиру Высоцкому исполнилось бы 80 лет. Представить его стариком невозможно! Кем он был – борцом, бунтарем, антисоветчиком или гением, встроенным в систему? Бардом или по-настоящему большим поэтом уровня Маяковского, Есенина, Бродского?
Малоизвестные факты, уникальный видеоматериал и необычные точки зрения.

Страна: Россия
Студия: ВГТРК, Россия 1 HD
Продолжительность: 00:57:07
Перевод: Не требуется

Файл
Кодек: h.264
Качество: HDTV 1080i
Видео: AVC MPEG-4, 1920x1080 (16:9), ~10.3 Mbps, 50 fps
Звук: AAC, 2 ch, 510 Kbps

Релиз от: NNMClub
[+] Mediainfo

General
Unique ID                   : 314692132832293050820575227736841108720 (0xECBF800C5A2AEAEBE02FF60A23EDBCF0)
Complete name               : D:FilmК 80-летию Владимира Высоцкого.mkv
Format                      : Matroska
Format version              : Version 4 / Version 2
File size                   : 4.32 GiB
Duration                    : 57 min 7 s
Overall bit rate            : 10.8 Mb/s
Encoded date                : UTC 2018-01-27 09:43:36
Writing application         : mkvmerge v20.0.0 ('I Am The Sun') 64-bit
Writing library             : libebml v1.3.5 + libmatroska v1.4.8
Cover                       : Yes
Attachments                 : cover.png

Video
ID                          : 1
Format                      : AVC
Format/Info                 : Advanced Video Codec
Format profile              : High@L4
Format settings             : CABAC / 4 Ref Frames
Format settings, CABAC      : Yes
Format settings, RefFrames  : 4 frames
Format settings, GOP        : N=1
Codec ID                    : V_MPEG4/ISO/AVC
Duration                    : 57 min 7 s
Bit rate                    : 10.3 Mb/s
Width                       : 1 920 pixels
Height                      : 1 080 pixels
Display aspect ratio        : 16:9
Frame rate mode             : Variable
Frame rate                  : 50.000 FPS
Original frame rate         : 25.000 FPS
Standard                    : Component
Color space                 : YUV
Chroma subsampling          : 4:2:0
Bit depth                   : 8 bits
Scan type                   : Interlaced
Scan type, store method     : Separated fields
Scan order                  : Top Field First
Bits/(Pixel*Frame)          : 0.100
Stream size                 : 4.12 GiB (95%)
Language                    : Russian
Default                     : Yes
Forced                      : No
Color range                 : Limited
Color primaries             : BT.709
Transfer characteristics    : BT.709
Matrix coefficients         : BT.709

Audio
ID                          : 2
Format                      : AAC
Format/Info                 : Advanced Audio Codec
Format profile              : LC
Codec ID                    : A_AAC-2
Duration                    : 57 min 7 s
Bit rate                    : 510 kb/s
Channel(s)                  : 2 channels
Channel positions           : Front: L R
Sampling rate               : 44.1 kHz
Frame rate                  : 43.066 FPS (1024 SPF)
Compression mode            : Lossy
Delay relative to video     : 138 ms
Stream size                 : 208 MiB (5%)
Language                    : Russian
Default                     : Yes
Forced                      : No




Скриншоты:
[+] Всего файлов в раздаче - 1:
К 80-летию Владимира Высоцкого.mkv4.32 GB

Текущая раздача:
ДатаКомментарии    РазмерПиры
2018-01-28 U К 80-летию Владимира Высоцкого. В гости к Богу не бывает опозданий (2018) HDTV 1080i от NNMClub 4.32 GB ↑ 42 ↓ 25

Похожие раздачи по запросу - летию:
2018-01-28 U К-80 летию Владимира Высоцкого «Своя колея» [эфир от 26.01] (2018) HDTV 1080i 6.10 GB ↑ 55 ↓ 19
2018-01-27 U В гости к Богу не бывает опозданий. К 80-летию В.С. Высоцкого (2018) WEBRip от Files-х 734.12 MB ↑ 79 ↓ 23
2018-01-27 U В гости к Богу не бывает опозданий. К 80-летию В.С. Высоцкого (2018) WEBRip 720p от Files-х 659.83 MB ↑ 83 ↓ 33
2013-12-03 U Праздничный концерт к 35-летию АиФ (2013) SATRip 1.00 GB ↑ 31 ↓ 19
2013-09-27 U Балет, балет, балет / К 70-летию белорусского балета (2003) SATRip от AND01AND 359.32 MB ↑ 70 ↓ 7

Отзывы
Зарегистрируйтесь чтобы добавить комментарий.
Обратная связь
Copyleft ©