↑↓torrent.by
Поиск
Логин: Регистрация
Пароль: Восстановить пароль

Жандарм и инопланетяне / Le gendarme et les extra-terrestres (1978) BDRip 720p | D, P, A

Скачать zhandarm-i-inoplanetyane-le-gendarme-et-les-extra-terrestres-1978-bdrip-720p-d-p-a.torrent
U Магнитная ссылка Размер: 4.37 GB Раздают: 94 Качают: 36 Добавлен: 2018-01-28 08:38:18
Жандарм и инопланетяне / Le gendarme et les extra-terrestres (1978) BDRip 720p | D, P, A

Название: Жандарм и инопланетяне
Оригинальное название: Le gendarme et les extra-terrestres
Год выхода: 1978
Жанр:  фантастика, комедия, криминал
Режиссер: Жан Жиро
В ролях: Луи де Фюнес, Мишель Галабрю, Морис Риш, Жан-Пьер Рамбаль, Ги Гроссо, Мишель Модо, Франс Румилли, Жан-Роже Коссимон, Марио Давид, Жак Франсуа

Роли дублировали:: Михаил Глузский, Феликс Яворский, Юрий Саранцев

Описание: Все земные враги уже побеждены бесстрашным отрядом жандармов и их сержантом Крюшо. Осталось помериться силами с пришельцами. И они действительно высаживаются в окрестностях Сен-Тропеза. Коварные существа не выступают в своем истинном злобном обличье.

Они принимают вид самих жандармов, отличаясь от людей только тем, что пьют масло и ржавеют от воды… Это приводит к бесчисленным комическим ситуациям и неизвестно, что бы случилось с землей, если бы не доходящее до идиотизма мужество сержанта Крюшо.

Страна: Франция
Продолжительность: 01:31:38
Перевод #1: Профессиональный (Многоголосый, Закадровый) (Рен-ТВ)
Перевод #2: Профессиональный (Многоголосый, Закадровый) (Twister/Тивионика)
Перевод #3: Профессиональный (Многоголосый, Закадровый) (Останкино)
Перевод #4: Профессиональный (Многоголосый, Закадровый) (ОРТ)
Перевод #5: Авторский (Одноголосый, Закадровый) (Константин Дьяконов)
Перевод #6: Профессиональный (Дублированный) (Мосфильм)
Перевод #7: Авторский (Одноголосый, Закадровый) (Сергей Козлов)
Перевод #8: Профессиональный (Двухголосый, Закадровый) (Украинский) (NTN)
Перевод #9: Французский (Оригинал)

Файл
Формат: MKV
Качество: BDRip 720p (Источник: Blu-ray Disc)
Видео: 1280x720 (16:9), 24.000 fps, 5091 kbps
Аудио #1: AC-3, 2 ch, 192 kbps (Многоголосый Рен-ТВ)
Аудио #2: AC-3, 2 ch, 192 kbps (Многоголосый Twister/Тивионика)
Аудио #3: AC-3, 2 ch, 192 kbps (Многоголосый Останкино)
Аудио #4: AC-3, 2 ch, 192 kbps (Многоголосый ОРТ)
Аудио #5: AC-3, 2 ch, 192 kbps (Одноголосый Константин Дьяконов)
Аудио #6: AC-3, 2 ch, 192 kbps (Дублированный Мосфильм)
Аудио #7: AC-3, 2 ch, 192 kbps (Одноголосый Сергей Козлов)
Аудио #8: AC-3, 2 ch, 192 kbps (Двухголосый Украинский)
Аудио #9: AC-3, 2 ch, 192 kbps (Французский Оригинал)
Субтитры: Русские (Полные), Французские (Полные), Английские (Полные)
Скачать: Семпл


[+] MediaInfo
General
Unique ID                                : 197489498308881491792205515354291290307 (0x94931806857AB72987684F98C3ABC0C3)
Complete name                            : Le.gendarme.et.les.extra.terrestres.1978.BDRip.720p.mkv
Format                                   : Matroska
Format version                           : Version 2
File size                                : 4.37 GiB
Duration                                 : 1h 31mn
Overall bit rate                         : 6 823 Kbps
Encoded date                             : UTC 2013-11-17 08:32:45
Writing application                      : mkvmerge v5.6.0 ('Kenya Kane') built on May 27 2012 16:44:04
Writing library                          : libebml v1.2.3 + libmatroska v1.3.0

Video
ID                                       : 1
Format                                   : AVC
Format/Info                              : Advanced Video Codec
Format profile                           : High@L4.1
Format settings, CABAC                   : Yes
Format settings, ReFrames                : 8 frames
Codec ID                                 : V_MPEG4/ISO/AVC
Duration                                 : 1h 31mn
Bit rate                                 : 5 091 Kbps
Width                                    : 1 280 pixels
Height                                   : 720 pixels
Display aspect ratio                     : 16:9
Frame rate mode                          : Constant
Frame rate                               : 24.000 fps
Color space                              : YUV
Chroma subsampling                       : 4:2:0
Bit depth                                : 8 bits
Scan type                                : Progressive
Bits/(Pixel*Frame)                       : 0.230
Stream size                              : 3.17 GiB (73%)
Title                                    : Жандарм и инопланетяне / Le gendarme et les extra-terrestres (1978)
Writing library                          : x264 core 130 r2273 b3065e6
Encoding settings                        : cabac=1 / ref=8 / deblock=1:-3:-3 / analyse=0x3:0x113 / me=umh / subme=11 / psy=1 / psy_rd=1.00:0.00 / mixed_ref=1 / me_range=32 / chroma_me=1 / trellis=2 / 8x8dct=1 / cqm=0 / deadzone=21,11 / fast_pskip=1 / chroma_qp_offset=-2 / threads=6 / lookahead_threads=1 / sliced_threads=0 / nr=0 / decimate=1 / interlaced=0 / bluray_compat=0 / constrained_intra=0 / bframes=6 / b_pyramid=2 / b_adapt=2 / b_bias=0 / direct=3 / weightb=1 / open_gop=0 / weightp=2 / keyint=240 / keyint_min=24 / scenecut=40 / intra_refresh=0 / rc=2pass / mbtree=0 / bitrate=5091 / ratetol=1.0 / qcomp=0.60 / qpmin=0 / qpmax=69 / qpstep=4 / cplxblur=20.0 / qblur=0.5 / ip_ratio=1.40 / pb_ratio=1.30 / aq=1:1.00
Language                                 : English
Default                                  : Yes
Forced                                   : No
Color primaries                          : BT.709
Transfer characteristics                 : BT.709
Matrix coefficients                      : BT.709

Audio #1
ID                                       : 2
Format                                   : AC-3
Format/Info                              : Audio Coding 3
Mode extension                           : CM (complete main)
Format settings, Endianness              : Big
Codec ID                                 : A_AC3
Duration                                 : 1h 31mn
Bit rate mode                            : Constant
Bit rate                                 : 192 Kbps
Channel(s)                               : 2 channels
Channel positions                        : Front: L R
Sampling rate                            : 48.0 KHz
Bit depth                                : 16 bits
Compression mode                         : Lossy
Stream size                              : 126 MiB (3%)
Title                                    : Многоголосый 2.0 (Рен-ТВ)
Language                                 : Russian
Default                                  : Yes
Forced                                   : No

Audio #2
ID                                       : 3
Format                                   : AC-3
Format/Info                              : Audio Coding 3
Mode extension                           : CM (complete main)
Format settings, Endianness              : Big
Codec ID                                 : A_AC3
Duration                                 : 1h 31mn
Bit rate mode                            : Constant
Bit rate                                 : 192 Kbps
Channel(s)                               : 2 channels
Channel positions                        : Front: L R
Sampling rate                            : 48.0 KHz
Bit depth                                : 16 bits
Compression mode                         : Lossy
Stream size                              : 126 MiB (3%)
Title                                    : Многоголосый 2.0 (Twister/Тивионика)
Language                                 : Russian
Default                                  : No
Forced                                   : No

Audio #3
ID                                       : 4
Format                                   : AC-3
Format/Info                              : Audio Coding 3
Mode extension                           : CM (complete main)
Format settings, Endianness              : Big
Codec ID                                 : A_AC3
Duration                                 : 1h 31mn
Bit rate mode                            : Constant
Bit rate                                 : 192 Kbps
Channel(s)                               : 2 channels
Channel positions                        : Front: L R
Sampling rate                            : 48.0 KHz
Bit depth                                : 16 bits
Compression mode                         : Lossy
Stream size                              : 126 MiB (3%)
Title                                    : Многоголосый 2.0 (Останкино)
Language                                 : Russian
Default                                  : No
Forced                                   : No

Audio #4
ID                                       : 5
Format                                   : AC-3
Format/Info                              : Audio Coding 3
Mode extension                           : CM (complete main)
Format settings, Endianness              : Big
Codec ID                                 : A_AC3
Duration                                 : 1h 31mn
Bit rate mode                            : Constant
Bit rate                                 : 192 Kbps
Channel(s)                               : 2 channels
Channel positions                        : Front: L R
Sampling rate                            : 48.0 KHz
Bit depth                                : 16 bits
Compression mode                         : Lossy
Stream size                              : 126 MiB (3%)
Title                                    : Многоголосый 2.0 (ОРТ)
Language                                 : Russian
Default                                  : No
Forced                                   : No

Audio #5
ID                                       : 6
Format                                   : AC-3
Format/Info                              : Audio Coding 3
Mode extension                           : CM (complete main)
Format settings, Endianness              : Big
Codec ID                                 : A_AC3
Duration                                 : 1h 31mn
Bit rate mode                            : Constant
Bit rate                                 : 192 Kbps
Channel(s)                               : 2 channels
Channel positions                        : Front: L R
Sampling rate                            : 48.0 KHz
Bit depth                                : 16 bits
Compression mode                         : Lossy
Stream size                              : 126 MiB (3%)
Title                                    : Одноголосый 2.0 (Константин Дьяконов)
Language                                 : Russian
Default                                  : No
Forced                                   : No

Audio #6
ID                                       : 7
Format                                   : AC-3
Format/Info                              : Audio Coding 3
Mode extension                           : CM (complete main)
Format settings, Endianness              : Big
Codec ID                                 : A_AC3
Duration                                 : 1h 31mn
Bit rate mode                            : Constant
Bit rate                                 : 192 Kbps
Channel(s)                               : 2 channels
Channel positions                        : Front: L R
Sampling rate                            : 48.0 KHz
Bit depth                                : 16 bits
Compression mode                         : Lossy
Stream size                              : 126 MiB (3%)
Title                                    : Дублированный 2.0 (Мосфильм)
Language                                 : Russian
Default                                  : No
Forced                                   : No

Audio #7
ID                                       : 8
Format                                   : AC-3
Format/Info                              : Audio Coding 3
Mode extension                           : CM (complete main)
Format settings, Endianness              : Big
Codec ID                                 : A_AC3
Duration                                 : 1h 31mn
Bit rate mode                            : Constant
Bit rate                                 : 192 Kbps
Channel(s)                               : 2 channels
Channel positions                        : Front: L R
Sampling rate                            : 48.0 KHz
Bit depth                                : 16 bits
Compression mode                         : Lossy
Stream size                              : 126 MiB (3%)
Title                                    : Одноголосый 2.0 (Сергей Козлов)
Language                                 : Russian
Default                                  : No
Forced                                   : No

Audio #8
ID                                       : 9
Format                                   : AC-3
Format/Info                              : Audio Coding 3
Mode extension                           : CM (complete main)
Format settings, Endianness              : Big
Codec ID                                 : A_AC3
Duration                                 : 1h 31mn
Bit rate mode                            : Constant
Bit rate                                 : 192 Kbps
Channel(s)                               : 2 channels
Channel positions                        : Front: L R
Sampling rate                            : 48.0 KHz
Bit depth                                : 16 bits
Compression mode                         : Lossy
Stream size                              : 126 MiB (3%)
Title                                    : Двухголосый 2.0 (Украинский) (NTN)
Language                                 : Ukrainian
Default                                  : No
Forced                                   : No

Audio #9
ID                                       : 10
Format                                   : AC-3
Format/Info                              : Audio Coding 3
Mode extension                           : CM (complete main)
Format settings, Endianness              : Big
Codec ID                                 : A_AC3
Duration                                 : 1h 31mn
Bit rate mode                            : Constant
Bit rate                                 : 192 Kbps
Channel(s)                               : 2 channels
Channel positions                        : Front: L R
Sampling rate                            : 48.0 KHz
Bit depth                                : 16 bits
Compression mode                         : Lossy
Stream size                              : 126 MiB (3%)
Title                                    : Французский 2.0 (Оригинал)
Language                                 : French
Default                                  : No
Forced                                   : No

Text #1
ID                                       : 11
Format                                   : UTF-8
Codec ID                                 : S_TEXT/UTF8
Codec ID/Info                            : UTF-8 Plain Text
Title                                    : Русские (Полные)
Language                                 : Russian
Default                                  : No
Forced                                   : No

Text #2
ID                                       : 12
Format                                   : ASS
Codec ID                                 : S_TEXT/ASS
Codec ID/Info                            : Advanced Sub Station Alpha
Compression mode                         : Lossless
Title                                    : Французские (Полные)
Language                                 : French
Default                                  : No
Forced                                   : No

Text #3
ID                                       : 13
Format                                   : ASS
Codec ID                                 : S_TEXT/ASS
Codec ID/Info                            : Advanced Sub Station Alpha
Compression mode                         : Lossless
Title                                    : Английские (Полные)
Language                                 : English
Default                                  : No
Forced                                   : No



Скриншоты:
[+] Всего файлов в раздаче - 1:
Le.gendarme.et.les.extra.terrestres.1978.BDRip.720p.mkv4.37 GB

Похожие раздачи по запросу - жандарм:
2018-01-28 U Жандарм и жандарметки / The Gendarme and the Gendarmettes / Le gendarme et les gendarmettes (1982) BDRip 720p | P, A 4.36 GB ↑ 128 ↓ 36
2018-01-28 U Жандарм на отдыхе / Le gendarme en balade (1970) BDRip 720p | P, A 4.37 GB ↑ 100 ↓ 38
2018-01-28 U Жандарм в Нью-Йорке / Le gendarme a New York (1965) BDRip 720p | D, P, A 4.36 GB ↑ 91 ↓ 34
2018-01-28 U Жандарм женится / Le gendarme se marie (1968) BDRip 720p | D, P, A 4.36 GB ↑ 105 ↓ 33

Отзывы
Зарегистрируйтесь чтобы добавить комментарий.
Обратная связь
Copyleft ©