↑↓Torrent.by
Поиск
Логин: Регистрация
Пароль: Восстановить пароль
Загрузка...

Дозор джунглей / Les as de la jungle (2017) BDRip 720p от KinoGadget | iPad | Лицензия

Скачать dozor-dzhungley-les-as-de-la-jungle-2017-bdrip-720p-ot-kinogadget-ipad-licenziya.torrent
U Магнитная ссылка Размер: 1.96 GB Раздают: 91 Качают: 20 Добавлен: 2018-01-29 13:47:56
Дозор джунглей / Les as de la jungle (2017) BDRip 720p от KinoGadget | iPad | Лицензия

Год выпуска: 2017
Оригинальное название: Les as de la jungle
Страна: Франция
Жанр:  мультфильм, приключения, семейный
Возраст: 6+

Режиссер: Дэвид Ало

В ролях: Пол Борн, Филипп Бозо, Паскаль Касанова, Эммануэль Кюртиль, Мишель Меля, Селин Монсарра, Лоран Морто, Жан-Филипп Пюмартин, Барбара Тиссье, Алексис Томассиан

Описание: Пингвин Морис тигрового окраса уверен, что он и в самом деле тигр — герой, в котором нуждаются джунгли. Вместе со своей энергичной командой разношерстных животных под названием «Дозор джунглей» он неусыпно стоит на страже справедливости и покоя. С переменным успехом, конечно, но они стараются. Однако вскоре ему предстоит столкнуться с невероятно коварным и безжалостным врагом — коалой Игорем и его армией туповатых бабуинов…

Продолжительность: 1:37:04
Перевод: Дублированный [Лицензия]
Оригинальная дорожка: нет

Релиз:

Качество видео: BDRip 720p Исходник: Blu-Ray (1080p) Формат: mp4
Видео кодек: MPEG-4 AVC Аудио кодек: AAC
Видео: 1280x536 (2.40:1) at 24.000 fps, AVC at 2 721 kbps avg, 0.165 bit/pixel
Аудио №1 Rus: 48.0 KHz, AAC, 2 ch, 160.0 Kbps
Субтитры: нет
Навигация по главам: есть
Размер: 1.96 GiB

Данный рип предназначен для просмотра на мобильных гаджетах с поддержкой формата mp4
[+] Log x264
avs [info]: 1280x536p 1:1 @ 24/1 fps (cfr)
x264 [info]: using SAR=1/1
x264 [info]: using cpu capabilities: MMX2 SSE2Fast SSSE3 Cache64
x264 [info]: profile High, level 4.1
x264 [info]: frame I:1376 Avg QP:14.93 size:151159
x264 [info]: frame P:38533 Avg QP:18.88 size: 29991
x264 [info]: frame B:99875 Avg QP:23.36 size: 6180
x264 [info]: consecutive B-frames: 4.3% 6.5% 10.2% 46.9% 17.4% 11.1% 3.6%
x264 [info]: mb I I16..4: 2.9% 68.7% 28.4%
x264 [info]: mb P I16..4: 1.6% 11.4% 1.5% P16..4: 40.5% 14.8% 14.5% 0.8% 0.3% skip:14.5%
x264 [info]: mb B I16..4: 0.2% 1.3% 0.3% B16..8: 29.6% 6.3% 1.8% direct: 3.0% skip:57.6% L0:34.4% L1:51.1% BI:14.4%
x264 [info]: 8x8 transform intra:75.5% inter:65.4%
x264 [info]: coded y,uvDC,uvAC intra: 75.4% 85.7% 56.9% inter: 17.2% 19.6% 4.6%
x264 [info]: i16 v,h,dc,p: 18% 36% 5% 41%
x264 [info]: i8 v,h,dc,ddl,ddr,vr,hd,vl,hu: 16% 21% 13% 6% 9% 8% 10% 8% 9%
x264 [info]: i4 v,h,dc,ddl,ddr,vr,hd,vl,hu: 18% 20% 9% 6% 12% 10% 11% 7% 8%
x264 [info]: i8c dc,h,v,p: 40% 25% 18% 16%
x264 [info]: Weighted P-Frames: Y:2.6% UV:1.4%
x264 [info]: ref P L0: 61.3% 14.2% 11.8% 3.8% 3.2% 2.7% 2.8% 0.1% 0.0%
x264 [info]: ref B L0: 87.1% 6.4% 3.3% 1.6% 1.1% 0.5%
x264 [info]: ref B L1: 96.5% 3.5%
x264 [info]: kb/s:2720.77
encoded 139784 frames, 5.12 fps, 2720.77 kb/s



[+] MI
General
Complete name : ...Dozor-dzhunglej-2017_KinoGadget.mp4
Format : MPEG-4
Format profile : Base Media
Codec ID : isom (isom)
File size : 1.96 GiB
Duration : 1 h 37 min
Overall bit rate mode : Variable
Overall bit rate : 2 889 kb/s
Movie name : Дозор джунглей | KinoGadget
Performer : Дэвид Ало
Director : Дэвид Ало
Actor : Пол Борн / Филипп Бозо / Паскаль Касанова / Эммануэль Кюртиль / Мишель Меля / Селин Монсарра / Лоран Морто / Жан-Филипп Пюмартин / Барбара Тиссье / Алексис Томассиан
Screenplay by : Дэвид Ало / Эрик Тости / Жан-Француа Тости
Genre : Adventure, Animation, Family
ContentType : Short Film
Recorded date : 2017
Encoded date : UTC 2018-01-28 07:33:19
Tagged date : UTC 2018-01-28 07:54:14
Cover : Yes
ContentRating : mpaa|PG|200|
LongDeion : Пингвин Морис тигрового окраса уверен, что он и в самом деле тигр — герой, в котором нуждаются джунгли. Вместе со своей энергичной командой разношерстных животных под названием «Дозор джунглей» он неусыпно стоит на страже справедливости и покоя. С переменным успехом, конечно, но они стараются. Однако вскоре ему предстоит столкнуться с невероятно коварным и безжалостным врагом — коалой Игорем и его армией туповатых бабуинов…
HDVideo : Yes

Video
ID : 1
Format : AVC
Format/Info : Advanced Video Codec
Format profile : High@L4.1
Format settings : CABAC / 7 Ref Frames
Format settings, CABAC : Yes
Format settings, ReFrames : 7 frames
Codec ID : avc1
Codec ID/Info : Advanced Video Coding
Duration : 1 h 37 min
Bit rate : 2 721 kb/s
Maximum bit rate : 14.6 Mb/s
Width : 1 280 pixels
Height : 536 pixels
Display aspect ratio : 2.40:1
Frame rate mode : Constant
Frame rate : 24.000 FPS
Color space : YUV
Chroma subsampling : 4:2:0
Bit depth : 8 bits
Scan type : Progressive
Bits/(Pixel*Frame) : 0.165
Stream size : 1.84 GiB (94%)
Writing library : x264 core 152 r2851 ba24899
Encoding settings : cabac=1 / ref=7 / deblock=1:0:0 / analyse=0x3:0x133 / me=umh / subme=7 / psy=1 / psy_rd=1.00:0.00 / mixed_ref=1 / me_range=32 / chroma_me=1 / trellis=2 / 8x8dct=1 / cqm=0 / deadzone=21,11 / fast_pskip=0 / chroma_qp_offset=-2 / threads=3 / lookahead_threads=1 / sliced_threads=0 / nr=0 / decimate=1 / interlaced=0 / bluray_compat=0 / constrained_intra=0 / bframes=6 / b_pyramid=2 / b_adapt=2 / b_bias=0 / direct=1 / weightb=1 / open_gop=0 / weightp=2 / keyint=250 / keyint_min=25 / scenecut=40 / intra_refresh=0 / rc_lookahead=60 / rc=crf / mbtree=1 / crf=19.0 / qcomp=0.60 / qpmin=0 / qpmax=69 / qpstep=4 / vbv_maxrate=62500 / vbv_bufsize=78125 / crf_max=0.0 / nal_hrd=none / filler=0 / ip_ratio=1.40 / aq=1:1.00
Encoded date : UTC 2018-01-27 23:56:43
Tagged date : UTC 2018-01-28 07:34:23

Audio
ID : 2
Format : AAC
Format/Info : Advanced Audio Codec
Format profile : LC
Codec ID : mp4a-40-2
Duration : 1 h 37 min
Bit rate mode : Variable
Bit rate : 160 kb/s
Maximum bit rate : 168 kb/s
Channel(s) : 2 channels
Channel positions : Front: L R
Sampling rate : 48.0 kHz
Frame rate : 46.875 FPS (1024 SPF)
Compression mode : Lossy
Stream size : 111 MiB (6%)
Language : Russian
Encoded date : UTC 2018-01-28 00:26:27
Tagged date : UTC 2018-01-28 07:34:23

Menu



Скриншоты:
[+] Всего файлов в раздаче - 1:
Dozor-dzhunglej-2017_KinoGadget.mp41.96 GB

Текущая раздача:
ДатаКомментарии    РазмерПиры
2018-01-29 U Дозор джунглей / Les as de la jungle (2017) BDRip 720p от KinoGadget | iPad | Лицензия 1.96 GB ↑ 91 ↓ 20

Похожие раздачи по запросу - дозор:
2018-03-16 U Вермильоновый дозор 3. Орден Зеро. Коллекционное издание / Vermillion Watch 3: Order Zero CE (2017) PC 1,013.49 MB ↑ 183 ↓ 22
2018-01-15 U Дозор джунглей / Les as de la jungle (2017) BDRip-AVC от Kaztorrents | Rus Transfer | Лицензия 1.46 GB ↑ 417 ↓ 34
2018-01-15 U Дозор джунглей / Les as de la jungle (2017) BDRip от MegaPeer | Rus Transfer | Лицензия 1.46 GB ↑ 304 ↓ 18
2016-02-06 U Космический дозор. Эпизод 1 / (T)Raumschiff Surprise - Periode 1 (2004) BDRip 1080p от NNNB 1К5.76 GB ↑ 129 ↓ 63
2013-12-02 U Ночной дозор (2004) DVDRip [Русская версия] 10К2.18 GB ↑ 617 ↓ 13
2013-10-21 U Ночной дозор / Night Watch (1973) DVDRip-AVC 1.41 GB ↑ 11 ↓ 1

Отзывы
Зарегистрируйтесь чтобы добавить комментарий.
Обратная связь
Copyleft ©