↑↓Torrent.by
Поиск
Логин: Регистрация
Пароль: Восстановить пароль
Загрузка...

Три богатыря и принцесса Египта (2017) WEB-DLRip-AVC от ExKinoRay | iTunes

Скачать tri-bogatyrya-i-princessa-egipta-2017-web-dlrip-avc-ot-exkinoray-itunes.torrent
U Магнитная ссылка Размер: 1.17 GB Раздают: 568 Качают: 208 Добавлен: 2018-01-30 11:41:13
Три богатыря и принцесса Египта (2017) WEB-DLRip-AVC от ExKinoRay | iTunes

Название: Три богатыря и принцесса Египта
Год выхода: 2017
Жанр: мультфильм, приключения, семейный, фэнтези
Режиссер: Константин Феоктистов
Роли озвучивали: Олег Куликович, Валерий Соловьев, Дмитрий Быковский-Ромашов, Сергей Маковецкий, Дмитрий Высоцкий, Александр Быковский, Елена Шульман, Лия Медведева, Мария Цветкова-Овсянникова, Анатолий Петров

Описание:  
В новогоднюю ночь, в то время, как Князь готовится произнести торжественную речь, а Юлий распаковывает подарки и следит за приготовлением праздничного стола, богатыри едут в гости к Алёше и встречают там странного товарища по имени Дурило. Оказывается, это тринадцатый месяц, который никому особенно не нужен, и который пытается осуществить своё заветное желание — стать самым главным месяцем в году. Только и надо ему, что притвориться Дедом Морозом, показать доверчивому Алёше пару фокусов, подружиться с богатырями и оказаться в Египте — стране фараонов и древних пирамид. А дальше — пирамиды, заклинание, Древний огонь — и дело в шляпе! Но не так-то просто осуществить своё коварное желание, когда на пути у тебя встают не только три богатыря, но и их жёны, Князь и Юлий, Змей Горыныч и Дед Мороз и даже — сама принцесса Нефертити!

Страна: Россия
Продолжительность: 01:08:43
Язык: Русский

Файл
Формат: MKV
Качество: WEB-DLRip-AVC
Видео: MPEG-4 AVC, 1024x576 (16:9), 25.000 fps, ~2046 kbps avg, 0.139 bit/pixel
Звук: AC3, 48.0 KHz, 5.1 ch, 384 kbps

Релиз:

Автор релиза:


[+] МИ
General
Unique ID                                : 239502404756955598006129896486569689056 (0xB42E7C3D1B5DB36A89A85A2444A6BFE0)
Complete name                            : D:Tri.bogaturya.i.Printzesa.Eghipta.2017.O.WEB-DLRip.AVC.ExKinoRay.mkv
Format                                   : Matroska
Format version                           : Version 2
File size                                : 1.17 GiB
Duration                                 : 1 h 8 min
Overall bit rate                         : 2 429 kb/s
Movie name                               : Tri bogaturya i Printzesa Eghipta 2O17 from ExKinoRay
Encoded date                             : UTC 2018-01-30 00:36:41
Writing application                      : mkvmerge v5.6.0 ('Kenya Kane') built on May 27 2012 16:44:04
Writing library                          : libebml v1.2.3 + libmatroska v1.3.0

Video
ID                                       : 1
Format                                   : AVC
Format/Info                              : Advanced Video Codec
Format profile                           : High@L4.1
Format settings, CABAC                   : Yes
Format settings, ReFrames                : 12 frames
Codec ID                                 : V_MPEG4/ISO/AVC
Duration                                 : 1 h 8 min
Bit rate                                 : 2 046 kb/s
Width                                    : 1 024 pixels
Height                                   : 576 pixels
Display aspect ratio                     : 16:9
Frame rate mode                          : Constant
Frame rate                               : 25.000 FPS
Color space                              : YUV
Chroma subsampling                       : 4:2:0
Bit depth                                : 8 bits
Scan type                                : Progressive
Bits/(Pixel*Frame)                       : 0.139
Stream size                              : 981 MiB (82%)
Title                                    : Enigma
Writing library                          : x264 core 152 r2851 ba24899
Encoding settings                        : cabac=1 / ref=12 / deblock=1:-2:-2 / analyse=0x3:0x113 / me=umh / subme=10 / psy=1 / psy_rd=1.00:0.05 / mixed_ref=1 / me_range=32 / chroma_me=1 / trellis=2 / 8x8dct=1 / cqm=0 / deadzone=21,11 / fast_pskip=0 / chroma_qp_offset=-3 / threads=12 / lookahead_threads=2 / sliced_threads=0 / nr=0 / decimate=0 / interlaced=0 / bluray_compat=0 / constrained_intra=0 / bframes=9 / b_pyramid=2 / b_adapt=2 / b_bias=0 / direct=3 / weightb=1 / open_gop=0 / weightp=2 / keyint=250 / keyint_min=25 / scenecut=40 / intra_refresh=0 / rc_lookahead=40 / rc=2pass / mbtree=0 / bitrate=2046 / ratetol=1.0 / qcomp=0.60 / qpmin=0 / qpmax=51 / qpstep=4 / cplxblur=20.0 / qblur=0.5 / vbv_maxrate=50000 / vbv_bufsize=62500 / nal_hrd=none / filler=0 / ip_ratio=1.25 / pb_ratio=1.30 / aq=1:1.00
Language                                 : English
Default                                  : Yes
Forced                                   : No
Color range                              : Limited
Color primaries                          : BT.709
Transfer characteristics                 : BT.709
Matrix coefficients                      : BT.709

Audio
ID                                       : 2
Format                                   : AC-3
Format/Info                              : Audio Coding 3
Mode extension                           : CM (complete main)
Format settings, Endianness              : Big
Codec ID                                 : A_AC3
Duration                                 : 1 h 8 min
Bit rate mode                            : Constant
Bit rate                                 : 384 kb/s
Channel(s)                               : 6 channels
Channel positions                        : Front: L C R, Side: L R, LFE
Sampling rate                            : 48.0 kHz
Frame rate                               : 31.250 FPS (1536 spf)
Compression mode                         : Lossy
Stream size                              : 189 MiB (16%)
Language                                 : Russian
Default                                  : Yes
Forced                                   : No

Menu
00:00:00.000                             : en:Глава 1
00:07:28.280                             : en:Глава 2
00:12:39.720                             : en:Глава 3
00:17:31.400                             : en:Глава 4
00:23:15.800                             : en:Глава 5
00:28:30.840                             : en:Глава 6
00:32:41.920                             : en:Глава 7
00:37:37.520                             : en:Глава 8
00:42:24.320                             : en:Глава 9
00:46:54.720                             : en:Глава 10
00:51:00.120                             : en:Глава 11
00:55:35.760                             : en:Глава 12
00:59:06.800                             : en:Глава 13




Скриншоты:
[+] Всего файлов в раздаче - 1:
Tri.bogaturya.i.Printzesa.Eghipta.2017.O.WEB-DLRip.AVC.ExKinoRay.mkv1.17 GB

Текущая раздача:
ДатаКомментарии    РазмерПиры
2018-01-30 U Три богатыря и принцесса Египта (2017) WEB-DLRip-AVC от ExKinoRay | iTunes 1.17 GB ↑ 568 ↓ 208

Показать еще раздачи по запросу богатыря:
2018-02-13 U Три богатыря: Коллекция (2004-2017) BDRip, WEB-DLRip 8.22 GB ↑ 67 ↓ 40
2018-02-04 U Три богатыря и принцесса Египта (2017) WEB-DLRip от GeneralFilm | iTunes 743.99 MB ↑ 98 ↓ 68
2018-02-04 U Три богатыря и принцесса Египта (2017) WEB-DLRip от MegaPeer | iTunes 744.54 MB ↑ 152 ↓ 63
2018-01-31 U Три богатыря и принцесса Египта (2017) WEB-DLRip-AVC от Generalfilm | iTunes 1.03 GB ↑ 166 ↓ 83
2018-01-30 U Три богатыря и принцесса Египта (2017) WEB-DLRip от Generalfilm | КПК | iTunes 259.75 MB ↑ 68 ↓ 26
2018-01-30 U Три богатыря и принцесса Египта (2017) WEB-DLRip от MegaPeer | iTunes 1.09 GB ↑ 1128 ↓ 440
2018-01-30 U Три богатыря и принцесса Египта (2017) WEB-DL 1080p | iTunes 2.64 GB ↑ 2310 ↓ 1081

Отзывы
Зарегистрируйтесь чтобы добавить комментарий.
Обратная связь
Copyleft ©