↑↓Torrent.by
Поиск
Логин: Регистрация
Пароль: Восстановить пароль
Загрузка...

Матильда (2017) BDRip 720p

Скачать matilda-2017-bdrip-720p.torrent
U Магнитная ссылка Размер: 4.28 GB Раздают: 464 Качают: 77 Добавлен: 2018-01-31 15:49:36
Матильда (2017) BDRip 720p

Название: Матильда
Год выхода: 2017
Жанр: Драма, история
Режиссер: Алексей Учитель
В ролях: Михалина Ольшанска, Ларс Айдингер, Луиза Вольфрам, Данила Козловский, Ингеборга Дапкунайте, Сергей Гармаш, Евгений Миронов, Григорий Добрынин, Галина Тюнина, Виталий Коваленко, Виталий Кищенко и др.

О фильме: На выпускном спектакле Императорского театрального училища Николай впервые видит Матильду Кшесинскую. Несмотря на козни соперницы, юная балерина блистательно исполняет свою партию и срывает бурные аплодисменты, а наследник престола не на шутку увлекается дерзкой танцовщицей. Между ними вспыхивает сильное чувство, но приходит день, когда нужно принимать судьбоносное решение, от которого зависит ход истории. Последний русский император и балерина, утвердившая славу русского балета. Любовь, ставшая легендой, в исторической мелодраме Алексея Учителя.

Выпущено: ТПО "Рок"
Продолжительность: 01:48:38
Перевод: Не требуется
Файл
Кодек: AVC
Качество: BDRip 720p
Видео: 1280x536, ~ 5640 Кбит/с, 24,000 к/c
Звук: AC3, 6.0, 48 kHz, 640 kbps
[+] MI
Общее
Уникальный идентификатор                 : 201316949866098674991898992055191868098 (0x97743BF4EC5AAA2BAB571B33A8F812C2)
Полное имя                               : E:MatildaMATILDA.720p.mkv
Формат                                   : Matroska
Версия формата                           : Version 4 / Version 2
Размер файла                             : 4,28 Гбайт
Продолжительность                        : 1 ч. 48 м.
Режим общего битрейта                    : Переменный
Общий поток                              : 5640 Кбит/сек
Дата кодирования                         : UTC 2018-01-30 15:45:01
Программа кодирования                    : mkvmerge v9.5.0 ('Quiet Fire') 64bit
Библиотека кодирования                   : libebml v1.3.4 + libmatroska v1.4.5

Видео
Идентификатор                            : 1
Формат                                   : AVC
Формат/Информация                        : Advanced Video Codec
Профиль формата                          : High@L5.1
Настройки формата                        : CABAC / 3 Ref Frames
Параметр CABAC формата                   : Да
Параметр RefFrames формата               : 3 кадра
Параметр GOP формата                     : M=3, N=24
Идентификатор кодека                     : V_MPEG4/ISO/AVC
Продолжительность                        : 1 ч. 48 м.
Вид битрейта                             : Переменный
Битрейт                                  : 4998 Кбит/сек
Максимальный битрейт                     : 10000 Кбит/сек
Ширина                                   : 1280 пикселей
Высота                                   : 536 пикселей
Соотношение сторон                       : 2,40:1
Режим частоты кадров                     : Постоянный
Частота кадров                           : 24,000 кадра/сек
Стандарт вещания                         : PAL
Цветовое пространство                    : YUV
Субдискретизация насыщенности            : 4:2:0
Битовая глубина                          : 8 бит
Тип развёртки                            : Прогрессивная
Бит/(Пиксели*Кадры)                      : 0.304
Размер потока                            : 3,79 Гбайт (89%)
Язык                                     : English
Default                                  : Да
Forced                                   : Нет
Цветовой диапазон                        : Limited
Основные цвета                           : BT.601 NTSC
Характеристики трансфера                 : BT.601
Коэффициенты матрицы                     : BT.601

Аудио
Идентификатор                            : 2
Формат                                   : AC-3
Формат/Информация                        : Audio Coding 3
Параметр Endianness формата              : Big
Идентификатор кодека                     : A_AC3
Продолжительность                        : 1 ч. 48 м.
Вид битрейта                             : Постоянный
Битрейт                                  : 640 Кбит/сек
Каналы                                   : 6 каналов
Расположение каналов                     : Front: L C R, Side: L R, LFE
Частота                                  : 48,0 КГц
Частота кадров                           : 31,250 кадров/сек (1536 SPF)
Битовая глубина                          : 16 бит
Метод сжатия                             : С потерями
Размер потока                            : 497 Мбайт (11%)
Default                                  : Да
Forced                                   : Нет




Скриншоты:
[+] Всего файлов в раздаче - 1:
MATILDA.720p.mkv4.28 GB

Текущая раздача:
ДатаКомментарии    РазмерПиры
2018-01-31 U Матильда (2017) BDRip 720p 4.28 GB ↑ 464 ↓ 77

Похожие раздачи по запросу - матильда:
2018-02-04 U Матильда (2017) BDRip от ExKinoRay | Лицензия 1.46 GB ↑ 1341 ↓ 286
2018-02-04 U Матильда (2017) HDRip от MegaPeer | Лицензия 747.68 MB ↑ 80 ↓ 39
2018-02-03 U Матильда (2017) HDRip от Portablius | Лицензия 697.12 MB ↑ 564 ↓ 105
2018-01-31 U Матильда (2017) BDRip 1080p 11.07 GB ↑ 286 ↓ 196
2017-10-28 U Матильда (2017) TS 797.22 MB ↑ 2152 ↓ 302

Отзывы
Зарегистрируйтесь чтобы добавить комментарий.
Обратная связь
Copyleft ©