↑↓Torrent.by
Поиск
Логин: Регистрация
Пароль: Восстановить пароль
Загрузка...

Матильда (2017) BDRip 1080p

Скачать matilda-2017-bdrip-1080p.torrent
U Магнитная ссылка Размер: 11.07 GB Раздают: 286 Качают: 196 Добавлен: 2018-01-31 18:02:10
Матильда (2017) BDRip 1080p

Название: Матильда
Год выхода: 2017
Жанр: Драма, история
Режиссер: Алексей Учитель
В ролях: Михалина Ольшанска, Ларс Айдингер, Луиза Вольфрам, Данила Козловский, Ингеборга Дапкунайте, Сергей Гармаш, Евгений Миронов, Григорий Добрынин, Галина Тюнина, Виталий Коваленко, Виталий Кищенко и др.

О фильме: На выпускном спектакле Императорского театрального училища Николай впервые видит Матильду Кшесинскую. Несмотря на козни соперницы, юная балерина блистательно исполняет свою партию и срывает бурные аплодисменты, а наследник престола не на шутку увлекается дерзкой тансовщицей. Между ними вспыхивает сильное чувство, но приходит день, когда нужно принимать судьбоносное решение, от которого зависит ход истории. Последний русский император и балерина, утвердившая славу русского балета. Любовь, ставшая легендой, в исторической мелодраме Алексея Учителя.

Выпущено: ТПО "Рок"
Продолжительность: 01:48:38
Перевод: Не требуется
Файл
Кодек: AVC
Качество: BDRip 1080p
Видео: 1920x804, ~ 10.1 Мбит/с, 24,000 к/c
Звук#1: AC3, 6.0, 48 kHz, 640 kbps
Звук#2: DTS-HD Master Audio 5.1, 48 kHz, 1509 kbps
[+] MI
Общее
Уникальный идентификатор                 : 241315747558358321343559389856828024089 (0xB58BB8F101EEA0F584B320E56ECCE519)
Полное имя                               : E:MatildaMATILDA.1080.mkv
Формат                                   : Matroska
Версия формата                           : Version 4 / Version 2
Размер файла                             : 11,1 Гбайт
Продолжительность                        : 1 ч. 48 м.
Режим общего битрейта                    : Переменный
Общий поток                              : 14,6 Мбит/сек
Название фильма                          : MATILDA.Title2
Дата кодирования                         : UTC 2018-01-30 12:25:28
Программа кодирования                    : mkvmerge v9.5.0 ('Quiet Fire') 64bit
Библиотека кодирования                   : libebml v1.3.4 + libmatroska v1.4.5

Видео
Идентификатор                            : 1
Формат                                   : AVC
Формат/Информация                        : Advanced Video Codec
Профиль формата                          : High@L4.2
Настройки формата                        : CABAC / 3 Ref Frames
Параметр CABAC формата                   : Да
Параметр RefFrames формата               : 3 кадра
Параметр GOP формата                     : M=3, N=24
Идентификатор кодека                     : V_MPEG4/ISO/AVC
Продолжительность                        : 1 ч. 48 м.
Вид битрейта                             : Переменный
Битрейт                                  : 10,1 Мбит/сек
Максимальный битрейт                     : 12,0 Мбит/сек
Ширина                                   : 1920 пикселей
Высота                                   : 804 пикселя
Соотношение сторон                       : 2,40:1
Режим частоты кадров                     : Постоянный
Частота кадров                           : 24,000 кадра/сек
Стандарт вещания                         : PAL
Цветовое пространство                    : YUV
Субдискретизация насыщенности            : 4:2:0
Битовая глубина                          : 8 бит
Тип развёртки                            : Прогрессивная
Бит/(Пиксели*Кадры)                      : 0.272
Размер потока                            : 7,63 Гбайт (69%)
Язык                                     : English
Default                                  : Да
Forced                                   : Нет
Цветовой диапазон                        : Limited
Основные цвета                           : BT.709
Характеристики трансфера                 : BT.709
Коэффициенты матрицы                     : BT.709

Аудио #1
Идентификатор                            : 2
Формат                                   : AC-3
Формат/Информация                        : Audio Coding 3
Параметр Endianness формата              : Big
Идентификатор кодека                     : A_AC3
Продолжительность                        : 1 ч. 48 м.
Вид битрейта                             : Постоянный
Битрейт                                  : 640 Кбит/сек
Каналы                                   : 6 каналов
Расположение каналов                     : Front: L C R, Side: L R, LFE
Частота                                  : 48,0 КГц
Частота кадров                           : 31,250 кадров/сек (1536 SPF)
Битовая глубина                          : 16 бит
Метод сжатия                             : С потерями
Размер потока                            : 497 Мбайт (4%)
Default                                  : Нет
Forced                                   : Нет

Аудио #2
Идентификатор                            : 3
Формат                                   : DTS
Формат/Информация                        : Digital Theater Systems
Профиль формата                          : MA / Core
Режим                                    : 16
Параметр Endianness формата              : Big
Идентификатор кодека                     : A_DTS
Продолжительность                        : 1 ч. 48 м.
Вид битрейта                             : Переменный / Постоянный
Битрейт                                  : 3840 Кбит/сек / 1509 Кбит/сек
Каналы                                   : 6 каналов
Расположение каналов                     : Front: L C R, Side: L R, LFE
Частота                                  : 48,0 КГц
Частота кадров                           : 93,750 кадра/сек (512 SPF)
Битовая глубина                          : 24 бит
Метод сжатия                             : Без потерь / Lossy
Размер потока                            : 2,95 Гбайт (27%)
Язык                                     : Russian
Default                                  : Да
Forced                                   : Нет




Скриншоты:
[+] Всего файлов в раздаче - 1:
MATILDA.1080.mkv11.07 GB

Текущая раздача:
ДатаКомментарии    РазмерПиры
2018-01-31 U Матильда (2017) BDRip 1080p 11.07 GB ↑ 286 ↓ 196

Похожие раздачи по запросу - матильда:
2018-02-04 U Матильда (2017) BDRip от ExKinoRay | Лицензия 1.46 GB ↑ 1341 ↓ 286
2018-02-04 U Матильда (2017) HDRip от MegaPeer | Лицензия 747.68 MB ↑ 80 ↓ 39
2018-02-03 U Матильда (2017) HDRip от Portablius | Лицензия 697.12 MB ↑ 564 ↓ 105
2018-01-31 U Матильда (2017) BDRip 720p 4.28 GB ↑ 464 ↓ 77
2017-10-28 U Матильда (2017) TS 797.22 MB ↑ 2152 ↓ 302

Отзывы
Зарегистрируйтесь чтобы добавить комментарий.
Обратная связь
Copyleft ©