↑↓Torrent.by
Поиск
Логин: Регистрация
Пароль: Восстановить пароль
Загрузка...

Kingsman: Золотое кольцо / Kingsman: The Golden Circle (2017) BDRip-AVC от New-Team | Лицензия

Скачать kingsman-zolotoe-kolco-the-golden-circle-2017-bdrip-avc-ot-new-team-licenziya.torrent
U Магнитная ссылка Размер: 2.19 GB Раздают: 99 Качают: 24 Добавлен: 2018-02-04 15:43:57
Kingsman: Золотое кольцо / Kingsman: The Golden Circle (2017) BDRip-AVC от New-Team | Лицензия

Группа New-Team ВКонтакте
Подписывайтесь так же на мою группу ВКонтакте stalkerok | AVC рипы
Ссылка в группе New-Team
Присоединяйтесь!

Kingsman: Золотое кольцо
Kingsman: The Golden Circle

«Reports of my death have been greatly exaggerated»

Страна: Великобритания, США
Жанр:  боевик, комедия, приключения

Год выпуска: 2017
Продолжительность: 02:21:02

Перевод: Профессиональный (полное дублирование) [Blu-ray EUR]
Субтитры: русские (форсированные, полные x2), английские (полные, SDH, SDH цветные)
Оригинальная аудиодорожка: английский

Режиссер: Мэттью Вон / Matthew Vaughn

В ролях: Тэрон Эджертон, Колин Фёрт, Марк Стронг, Джулианна Мур, Холли Берри, Педро Паскаль, Ченнинг Татум, Джефф Бриджес, Эдвард Холкрофт, Ханна Альстрём, Гордон Александр, Кэлвин Демба

Описание:
Когда штаб-квартиры секретной службы Kingsman уничтожены, и весь мир оказался в заложниках у неизвестных, британские суперагенты обнаруживают, что в один день вместе с их организацией была еще создана американская разведка - Statesman. Теперь эти две элитные спецслужбы должны объединиться и бросить вызов общему безжалостному врагу, чтобы спасти мир, то есть заняться тем, что для Эггси становится обычным делом...

Релиз:

Автор рипа: stalkerok

Семпл

Качество видео: BDRip-AVC [Kingsman: The Golden Circle (2017) Blu-ray Disc -BLUEBIRD]
Формат видео: MKV
Видео кодек: AVC
Аудио кодек: AC3, AAC
Видео: 1548 Кбит/сек, 960x402 (2.40:1), 23,976 кадр/сек, AVC
Аудио №1: русский, 448 Кбит/сек, 48 КГц, 5.1, AC3
Аудио №2: английский, 224 Кбит/сек, 48 КГц, 5.1, AAC
Навигация по главам: есть


[+] x264/MediaInfo


---[Information] [29.12.2017 17:31:48] x264 [info]: frame I:2060  Avg QP:17.84  size: 54263
---[Information] [29.12.2017 17:31:48] x264 [info]: frame P:48752 Avg QP:20.40  size: 16335
---[Information] [29.12.2017 17:31:48] x264 [info]: frame B:152079 Avg QP:22.61  size:  4800

Общее
Уникальный идентификатор                 : 215503450949839732337304235636264105057 (0xA2207476500BC8939A59EE681EAD7461)
Полное имя                               : M:$newKingsman The Golden Circle (2017)Kingsman.The.Golden.Circle.2017.BDRip-AVC.RUS.stalkerok.new-team.mkv
Формат                                   : Matroska
Версия формата                           : Version 4 / Version 2
Размер файла                             : 2,19 Гбайт
Продолжительность                        : 2 ч. 21 м.
Общий поток                              : 2223 Кбит/сек
Название фильма                          : Kingsman: The Golden Circle (2017) (Rip by stalkerok)
Дата кодирования                         : UTC 2018-02-03 12:39:23
Программа кодирования                    : mkvmerge v8.6.1 ('Flying') 64bit
Библиотека кодирования                   : libebml v1.3.3 + libmatroska v1.4.4

Видео
Идентификатор                            : 1
Формат                                   : AVC
Формат/Информация                        : Advanced Video Codec
Профиль формата                          : High@L4.1
Параметр CABAC формата                   : Да
Параметр ReFrames формата                : 16 кадров
Идентификатор кодека                     : V_MPEG4/ISO/AVC
Продолжительность                        : 2 ч. 21 м.
Битрейт                                  : 1549 Кбит/сек
Ширина                                   : 960 пикселей
Высота                                   : 402 пикселя
Соотношение сторон                       : 2,40:1
Режим частоты кадров                     : Постоянный
Частота кадров                           : 23,976 (24000/1001) кадра/сек
Цветовое пространство                    : YUV
Субдискретизация насыщенности            : 4:2:0
Битовая глубина                          : 8 бит
Тип развёртки                            : Прогрессивная
Бит/(Пиксели*Кадры)                      : 0.167
Размер потока                            : 1,53 Гбайт (70%)
Заголовок                                : Kingsman: The Golden Circle (2017) (Rip by stalkerok)
Библиотека кодирования                   : x264 core 152 r2851kMod ba24899
Настройки программы                      : cabac=1 / ref=16 / deblock=1:-3:-2 / analyse=0x3:0x133 / me=umh / subme=11 / psy=1 / fade_compensate=0.00 / psy_rd=1.00:0.00 / mixed_ref=1 / me_range=32 / chroma_me=1 / trellis=2 / 8x8dct=1 / cqm=0 / deadzone=21,11 / fast_pskip=0 / chroma_qp_offset=-2 / threads=12 / lookahead_threads=3 / sliced_threads=0 / nr=0 / decimate=1 / interlaced=0 / bluray_compat=0 / constrained_intra=0 / bframes=16 / b_pyramid=2 / b_adapt=2 / b_bias=0 / direct=3 / weightb=1 / open_gop=0 / weightp=2 / keyint=240 / keyint_min=23 / scenecut=40 / intra_refresh=0 / rc_lookahead=60 / rc=crf / mbtree=0 / crf=18.7000 / qcomp=0.65 / qpmin=0 / qpmax=69 / qpstep=4 / vbv_maxrate=50000 / vbv_bufsize=62500 / crf_max=0.0 / nal_hrd=none / filler=0 / ip_ratio=1.35 / pb_ratio=1.25 / aq=3:0.85 / zones=194518,202890,q=36
Default                                  : Да
Forced                                   : Нет

Аудио #1
Идентификатор                            : 8
Формат                                   : AC-3
Формат/Информация                        : Audio Coding 3
Расширение режима                        : CM (complete main)
Параметр Endianness формата              : Big
Идентификатор кодека                     : A_AC3
Продолжительность                        : 2 ч. 21 м.
Вид битрейта                             : Постоянный
Битрейт                                  : 448 Кбит/сек
Каналы                                   : 6 каналов
Расположение каналов                     : Front: L C R, Side: L R, LFE
Частота                                  : 48,0 КГц
Частота кадров                           : 31,250 кадров/сек (1536 spf)
Метод сжатия                             : С потерями
Размер потока                            : 452 Мбайт (20%)
Язык                                     : Russian
Default                                  : Да
Forced                                   : Нет

Аудио #2
Идентификатор                            : 9
Формат                                   : AAC
Формат/Информация                        : Advanced Audio Codec
Профиль формата                          : LC
Идентификатор кодека                     : A_AAC
Продолжительность                        : 2 ч. 21 м.
Битрейт                                  : 224 Кбит/сек
Каналы                                   : 6 каналов
Расположение каналов                     : Front: L C R, Side: L R, LFE
Частота                                  : 48,0 КГц
Частота кадров                           : 46,875 кадров/сек (1024 spf)
Метод сжатия                             : С потерями
Задержка видео                           : 9 мс.
Размер потока                            : 226 Мбайт (10%)
Язык                                     : English
Default                                  : Нет
Forced                                   : Нет

Текст #1
Идентификатор                            : 2
Формат                                   : UTF-8
Идентификатор кодека                     : S_TEXT/UTF8
Идентификатор кодека/Информация          : UTF-8 Plain Text
Продолжительность                        : 1 ч. 21 м.
Битрейт                                  : 0 бит/сек
Count of elements                        : 13
Размер потока                            : 365 байт (0%)
Заголовок                                : forced
Язык                                     : Russian
Default                                  : Да
Forced                                   : Нет

Текст #2
Идентификатор                            : 3
Формат                                   : UTF-8
Идентификатор кодека                     : S_TEXT/UTF8
Идентификатор кодека/Информация          : UTF-8 Plain Text
Продолжительность                        : 2 ч. 19 м.
Битрейт                                  : 81 бит/сек
Count of elements                        : 1673
Размер потока                            : 82,9 Кбайт (0%)
Заголовок                                : Blu-ray
Язык                                     : Russian
Default                                  : Нет
Forced                                   : Нет

Текст #3
Идентификатор                            : 4
Формат                                   : UTF-8
Идентификатор кодека                     : S_TEXT/UTF8
Идентификатор кодека/Информация          : UTF-8 Plain Text
Продолжительность                        : 2 ч. 13 м.
Битрейт                                  : 91 бит/сек
Count of elements                        : 1847
Размер потока                            : 89,3 Кбайт (0%)
Заголовок                                : nsv777
Язык                                     : Russian
Default                                  : Нет
Forced                                   : Нет

Текст #4
Идентификатор                            : 5
Формат                                   : UTF-8
Идентификатор кодека                     : S_TEXT/UTF8
Идентификатор кодека/Информация          : UTF-8 Plain Text
Продолжительность                        : 2 ч. 13 м.
Битрейт                                  : 55 бит/сек
Count of elements                        : 1876
Размер потока                            : 54,1 Кбайт (0%)
Язык                                     : English
Default                                  : Нет
Forced                                   : Нет

Текст #5
Идентификатор                            : 6
Формат                                   : UTF-8
Идентификатор кодека                     : S_TEXT/UTF8
Идентификатор кодека/Информация          : UTF-8 Plain Text
Продолжительность                        : 2 ч. 13 м.
Битрейт                                  : 60 бит/сек
Count of elements                        : 2136
Размер потока                            : 58,8 Кбайт (0%)
Заголовок                                : SDH
Язык                                     : English
Default                                  : Нет
Forced                                   : Нет

Текст #6
Идентификатор                            : 7
Формат                                   : UTF-8
Идентификатор кодека                     : S_TEXT/UTF8
Идентификатор кодека/Информация          : UTF-8 Plain Text
Продолжительность                        : 2 ч. 13 м.
Битрейт                                  : 96 бит/сек
Count of elements                        : 2136
Размер потока                            : 93,7 Кбайт (0%)
Заголовок                                : SDH Colored
Язык                                     : English
Default                                  : Нет
Forced                                   : Нет

Меню
00:00:00.000                             : en:Chapter 1
00:04:51.958                             : en:Chapter 2
00:09:39.453                             : en:Chapter 3
00:13:36.607                             : en:Chapter 4
00:18:54.299                             : en:Chapter 5
00:24:57.287                             : en:Chapter 6
00:28:43.346                             : en:Chapter 7
00:32:52.303                             : en:Chapter 8
00:39:18.731                             : en:Chapter 9
00:43:21.849                             : en:Chapter 10
00:48:26.570                             : en:Chapter 11
00:53:54.105                             : en:Chapter 12
00:58:31.257                             : en:Chapter 13
01:05:04.901                             : en:Chapter 14
01:09:52.521                             : en:Chapter 15
01:13:34.743                             : en:Chapter 16
01:19:41.860                             : en:Chapter 17
01:23:45.103                             : en:Chapter 18
01:28:55.288                             : en:Chapter 19
01:33:25.224                             : en:Chapter 20
01:40:14.758                             : en:Chapter 21
01:45:03.255                             : en:Chapter 22
01:49:38.488                             : en:Chapter 23
01:55:15.992                             : en:Chapter 24
02:01:40.835                             : en:Chapter 25
02:05:44.036                             : en:Chapter 26
02:12:36.406                             : en:Chapter 27
02:15:15.273                             : en:Chapter 28




Скриншоты:
[+] Всего файлов в раздаче - 1:
Kingsman.The.Golden.Circle.2017.BDRip-AVC.RUS.stalkerok.new-team.mkv2.19 GB

Текущая раздача:
ДатаКомментарии    РазмерПиры
2018-02-04 U Kingsman: Золотое кольцо / Kingsman: The Golden Circle (2017) BDRip-AVC от New-Team | Лицензия 2.19 GB ↑ 99 ↓ 24

Показать еще раздачи по запросу kingsman:
2018-02-15 U Kingsman: Золотое кольцо / Kingsman: The Golden Circle (2017) BDRip от HQCLUB | D | Лицензия 2.18 GB ↑ 41 ↓ 15
2018-01-23 U Kingsman: Золотое кольцо / Kingsman: The Golden Circle (2017) BDRip-AVC от HELLYWOOD | Лицензия 2.18 GB ↑ 23 ↓ 14
2018-01-21 U Kingsman: Золотое кольцо / Kingsman: The Golden Circle (2017) BDRip 720p от NNNB | D, A 5.79 GB ↑ 84 ↓ 38
2018-01-21 U Kingsman: Золотое кольцо / Kingsman: The Golden Circle (2017) HDRip от Scarabey | Лицензия 2.18 GB ↑ 79 ↓ 36
2018-01-21 U Kingsman: Золотое кольцо / Kingsman: The Golden Circle (2017) BDRip-HEVC 1080p от ХиМиК | D | Лицензия 5.35 GB ↑ 1 ↓ 118
2018-01-21 U Kingsman: Золотое кольцо / Kingsman: The Golden Circle (2017) HDRip от Scarabey | Лицензия 1.45 GB ↑ 61 ↓ 31
2018-01-21 U Kingsman: Золотое кольцо / Kingsman: The Golden Circle (2017) BDRip 720p от Scarabey | Лицензия 5.06 GB ↑ 82 ↓ 20

Отзывы
Зарегистрируйтесь чтобы добавить комментарий.
Обратная связь
Copyleft ©