↑↓Torrent.by
Поиск
Логин: Регистрация
Пароль: Восстановить пароль
Загрузка...

Бэтмен: Готэм в газовом свете / Batman: Gotham by Gaslight (2018) WEBRip 720p | Flarrow Films

Скачать betmen-gotem-v-gazovom-svete-batman-gotham-by-gaslight-2018-webrip-720p-flarrow-films.torrent
U Магнитная ссылка Размер: 2.39 GB Раздают: 385 Качают: 146 Добавлен: 2018-02-05 01:16:29
Бэтмен: Готэм в газовом свете / Batman: Gotham by Gaslight (2018) WEBRip 720p | Flarrow Films

Название: Бэтмен: Готэм в газовом свете
Оригинальное название: Batman: Gotham by Gasligh
Год выхода: 2018
Жанр: боевик, детектив, история, криминал, мультфильмы, приключения, фэнтези
Режиссер: Сэм Лью
В ролях: Брюс Гринвуд, Энтони Хэд, Скотт Гордон-Паттерсон, Грэй ДеЛисл, Кари Вурер, Линкольн Мелчер, Юрий Ловенталь, Джон Ди Маджио, Дженнифер Карпентер, Тара Стронг и другие

О фильме:
В альтернативной ситуации, в 1889 г., Брюс Уэйн возвратится в Готэм из своего странствия по Европе. Городок викторианской эпохи всё так же притягивает злоумышленников. Цепочка таинственных и бесчеловечных убийств вынуждает обитателей предполагать, что киллер — Бэтмен. Тёмному Рыцарю кидает вызов самый знаменитый маньяк XIX столетия — Джек-потрошитель

Страна: США
Продолжительность: 01:17:02
Перевод: Любительский (многоголосый, закадровый) | Flarrow Films

Файл
Формат: MP4
Кодек: MPEG-4 AVC
Качество: WEBRip 720p
Видео: 1280x720, 4061 Кбит/с, 23.976 FPS, 8 bits
Звук: AAC, 2 ch, 384 Кбит/с, 48.0 kHz
Субтитры: отсутствуют

Релиз от: Flarrow Films
Роли озвучивали: Lunar Arrow, Семён Евсиков, Dreamy Sleep, Игорь Шлыков, hAl, Велес Ксайев, Lelik_time, Nogoodvoice, Игорь Хрусталёв, ElisaL


[+] MediaInfo

Video
ID                          : 2
Format                      : AVC
Format/Info                 : Advanced Video Codec
Format profile              : High@L3.1
Format settings             : 2 Ref Frames
Format settings, CABAC      : No
Format settings, RefFrames  : 2 frames
Codec ID                    : avc1
Codec ID/Info               : Advanced Video Coding
Duration                    : 1 h 17 min
Bit rate                    : 4 061 kb/s
Maximum bit rate            : 13.4 Mb/s
Width                       : 1 280 pixels
Height                      : 720 pixels
Display aspect ratio        : 16:9
Frame rate mode             : Variable
Frame rate                  : 23.976 FPS
Minimum frame rate          : 23.810 FPS
Maximum frame rate          : 24.390 FPS
Color space                 : YUV
Chroma subsampling          : 4:2:0
Bit depth                   : 8 bits
Scan type                   : Progressive
Bits/(Pixel*Frame)          : 0.184
Stream size                 : 2.19 GiB (91%)
Title                       : Batman.Gotham.by.Gaslight.2018.720p.WEB-DL.DD5.1.H264-FGT
Language                    : English
Encoded date                : UTC 2018-01-23 08:35:19
Tagged date                 : UTC 2018-02-03 07:06:03
Color range                 : Limited
Color primaries             : BT.709
Transfer characteristics    : BT.709
Matrix coefficients         : BT.709

Audio
ID                          : 3
Format                      : AAC
Format/Info                 : Advanced Audio Codec
Format profile              : LC
Codec ID                    : mp4a-40-2
Duration                    : 1 h 17 min
Bit rate mode               : Variable
Bit rate                    : 384 kb/s
Maximum bit rate            : 389 kb/s
Channel(s)                  : 2 channels
Channel positions           : Front: L R
Sampling rate               : 48.0 kHz
Frame rate                  : 46.875 FPS (1024 SPF)
Compression mode            : Lossy
Stream size                 : 212 MiB (9%)
Language                    : English
Encoded date                : UTC 2018-02-03 07:05:50
Tagged date                 : UTC 2018-02-03 07:06:03



Скриншоты:
[+] Всего файлов в раздаче - 1:
БЭТМЕН.mp42.39 GB

Текущая раздача:
ДатаКомментарии    РазмерПиры
2018-02-05 U Бэтмен: Готэм в газовом свете / Batman: Gotham by Gaslight (2018) WEBRip 720p | Flarrow Films 2.39 GB ↑ 385 ↓ 146

Показать еще раздачи по запросу бэтмен:
2018-06-20 U Бэтмен: Убийственная шутка / Batman: The Killing Joke (2016) BDRip от ExKinoRay | D 1.46 GB ↑ 67 ↓ 11
2018-04-30 U Бэтмен-ниндзя / Batman Ninja (2018) WEB-DLRip 720p | Flarrow Films 3.22 GB ↑ 89 ↓ 29
2018-04-26 U Бэтмен-ниндзя / Batman Ninja (2018) BDRip 1080p | L1 6.76 GB ↑ 92 ↓ 55
2018-04-26 U Бэтмен-ниндзя / Batman Ninja (2018) WEB-DL 720p | L1 2.84 GB ↑ 139 ↓ 66
2018-04-14 U Бэтмен: Готэм в газовом свете / Batman: Gotham by Gaslight (2018) HDRip | Jaskier 1.37 GB ↑ 119 ↓ 21
2018-02-10 U Бэтмен: Готэм в газовом свете / Batman: Gotham by Gaslight (2018) WEBRip от Portablius | Flarrow Films 697.62 MB ↑ 100 ↓ 24
2018-02-05 U Бэтмен: Готэм в газовом свете / Batman: Gotham by Gaslight (2018) BDRip 720p от potroks | L 2.06 GB ↑ 123 ↓ 47

Отзывы
Зарегистрируйтесь чтобы добавить комментарий.
Обратная связь
Copyleft ©