↑↓Torrent.by
Поиск
Логин: Регистрация
Пароль: Восстановить пароль
Загрузка...

Деревня Хлюпово выходит из Союза (1992) TVRip

Скачать derevnya-hlyupovo-vyhodit-iz-soyuza-1992-tvrip.torrent
U Магнитная ссылка Размер: 742.55 MB Раздают: 175 Качают: 28 Добавлен: 2018-02-08 10:55:30
Деревня Хлюпово выходит из Союза (1992) TVRip

Название: Деревня Хлюпово выходит из Союза
Год выхода: 1992
Жанр:  Комедия
Режиссёр: Анатолий Вехотко
В ролях: Георгий Штиль, Сергей Исавнин, Анатолий Столбов, Любовь Тищенко, Михаил Солодовник, Игорь Ефимов, Нора Грякалова, Галина Сабурова, Екатерина Черняева, Александр Суснин, Борис Аракелов, Гелена Ивлиева, Николай Кузьмин, С(ергей?) Соколов, Ю. Поволяев(Вам знаком? Мне нет.) М.Семёнов (вообще в траурной рамке! Кто такой?)

О фильме: Устав от постоянных ревизоров и наезжающих начальников, жители маленькой деревни Хлюпово решили отделиться от страны. Действие картины происходит во время августовского путча 1991 года, а некоторые персонажи сыграны двойниками известных политических деятелей...

Страна: Россия
Студия: Ленфильм, Baltfilm
Продолжительность: 01:15:40
Перевод: Не требуется (оригинальный)

Файл
Формат: avi
Качество: TVRip
Видео: XviD, 640х480, 25fps, 1234kbps
Аудио: MPEG Layer 3, 2ch, 44100Hz, 128kbps

Релиз:


[+] MediaInfo

Общее
Полное имя                               : Derevna.Hlupovo.Vyhodit.Iz.Souza.1992.O.TVRip.700.CurHaJI.avi
Формат                                   : AVI
Формат/Информация                        : Audio Video Interleave
Размер файла                             : 743 Мбайт
Продолжительность                        : 1 ч. 15 м.
Режим общего битрейта                    : Переменный
Общий поток                              : 1372 Кбит/сек
Название фильма                          : Derevna.Hlupovo.Vyhodit.Iz.Souza.1992.O.TVRip.700.CurHaJI
Библиотека кодирования                   : VirtualDub build 35491/release

Видео
Идентификатор                            : 0
Формат                                   : MPEG-4 Visual
Профиль формата                          : Advanced Simple@L5
Параметр BVOP формата                    : 1
Параметр QPel формата                    : Нет
Параметр GMC формата                     : Без точки перехода
Параметр матрицы формата                 : Выборочная
Идентификатор кодека                     : XVID
Идентификатор кодека/Подсказка           : XviD
Продолжительность                        : 1 ч. 15 м.
Битрейт                                  : 1234 Кбит/сек
Ширина                                   : 640 пикселей
Высота                                   : 480 пикселей
Соотношение сторон                       : 4:3
Частота кадров                           : 25,000 кадров/сек
Цветовое пространство                    : YUV
Субдискретизация насыщенности            : 4:2:0
Битовая глубина                          : 8 бит
Тип развёртки                            : Прогрессивная
Метод сжатия                             : С потерями
Бит/(Пиксели*Кадры)                      : 0.161
Размер потока                            : 668 Мбайт (90%)
Библиотека кодирования                   : XviD 73

Аудио
Идентификатор                            : 1
Формат                                   : MPEG Audio
Версия формата                           : Version 1
Профиль формата                          : Layer 3
Режим                                    : Joint stereo
Расширение режима                        : MS Stereo
Идентификатор кодека                     : 55
Идентификатор кодека/Подсказка           : MP3
Продолжительность                        : 1 ч. 15 м.
Вид битрейта                             : Переменный
Битрейт                                  : 128 Кбит/сек
Каналы                                   : 2 канала
Частота                                  : 44,1 КГц
Метод сжатия                             : С потерями
Размер потока                            : 69,3 Мбайт (9%)
Выравнивание                             : Разделение по промежуткам
Продолжительность промежутка             : 40  мс. (1,00 видеокадр)
Время предзагрузки промежутка            : 500  мс.



Скриншоты:
[+] Всего файлов в раздаче - 1:
Derevna.Hlupovo.Vyhodit.Iz.Souza.1992.O.TVRip.700.CurHaJI.avi742.55 MB

Текущая раздача:
ДатаКомментарии    РазмерПиры
2018-02-08 U Деревня Хлюпово выходит из Союза (1992) TVRip 742.55 MB ↑ 175 ↓ 28

Показать еще раздачи по запросу деревня:
2018-01-07 U Деревня, в которой все молчали / Das Dorf des Schweigens (2015) HDTVRip 720p | L2 1.52 GB ↑ 170 ↓ 7
2017-09-25 U Смурфики: Затерянная деревня / Smurfs: The Lost Village (2017) BDRip 720p | Лицензия 6.18 GB ↑ 173 ↓ 41
2017-09-25 U Смурфики: Затерянная деревня / Smurfs: The Lost Village (2017) BDRip от MegaPeer | Лицензия 1.46 GB ↑ 259 ↓ 31
2017-07-16 U Почти идеальная деревня / Un village presque parfait (2014) HDRip | L1 1.47 GB ↑ 68 ↓ 34
2017-07-10 U Смурфики: Затерянная деревня / Smurfs: The Lost Village (2017) BDRip 1080p от Ash61 | 3D-Video | halfOU | iTunes 9.32 GB ↑ 35 ↓ 19
2017-07-01 U Смурфики: Затерянная деревня / Smurfs: The Lost Village (2017) BDRip от MegaPeer | iTunes 1.42 GB ↑ 492 ↓ 103
2017-06-30 U Смурфики: Затерянная деревня / Smurfs: The Lost Village (2017) HDRip-AVC от ExKinoRay | iTunes 2.12 GB ↑ 337 ↓ 80

Отзывы
Зарегистрируйтесь чтобы добавить комментарий.
Обратная связь
Copyleft ©