↑↓Torrent.by
Поиск
Логин: Регистрация
Пароль: Восстановить пароль
Загрузка...

Темные времена / Darkest Hour (2017) WEB-DL 720p | Sub

Скачать temnye-vremena-darkest-hour-2017-web-dl-720p-sub.torrent
U Магнитная ссылка Размер: 3.94 GB Раздают: 69 Качают: 32 Добавлен: 2018-02-08 18:07:21
Темные времена / Darkest Hour (2017) WEB-DL 720p | Sub

Название: Темные времена
Оригинальное название: Darkest Hour
Год выхода: 2017
Жанр: драма, военный, биография, история
Режиссер: Джо Райт
В ролях: Гари Олдман, Кристин Скотт Томас, Бен Мендельсон, Лили Джеймс, Рональд Пикап, Стивен Диллэйн, Николас Джонс, Сэмюэл Уэст, Дэвид Скофилд, Ричард Ламсден

О фильме:
История о первом и решающем шаге Уинстона Черчилля на посту премьер-министра Великобритании, получившего власть при чрезвычайных обстоятельствах. Успехи нацистской армии взбудоражили британское сообщество, но вопреки давлению и страху других политиков Черчилль отказывается идти на соглашение с Гитлером.

Страна: Великобритания
Студия: Perfect World Pictures, Working Title Films
Продолжительность: 02:04:55
Перевод: СУБТИТРЫ

Файл
Кодек: H.264
Качество: WEB-DL 720p
Видео: AVC, 1280x688 (1.860), 23.976 fps ~ 4040 Kbps
Звук: AC3, 48 KHz, 6 ch ~ 384 Kb/s (английский)
Субтитры: русские, английские
[+] MI:

Общее
Уникальный идентификатор : 303244827536400728456899683068076025388 (0xE422D45276993050B47D3BB5243AE62C)
Полное имя : Q:TorFThe.Darkest.Hour.2017.720p.WEB-DL.H264.AC3.RUS.SUB.mkv
Формат : Matroska
Версия формата : Version 4 / Version 2
Размер файла : 3,94 Гбайт
Продолжительность : 2 ч. 4 м.
Общий поток : 4517 Кбит/сек
Название фильма : EVO
Дата кодирования : UTC 2018-02-07 18:07:07
Программа кодирования : mkvmerge v20.0.0 ('I Am The Sun') 64-bit
Библиотека кодирования : libebml v1.3.5 + libmatroska v1.4.8
DURATION : 01:59:11.444000000
NUMBER_OF_FRAMES : 1682
NUMBER_OF_BYTES : 93966
_STATISTICS_WRITING_APP : mkvmerge v20.0.0 ('I Am The Sun') 64-bit
_STATISTICS_WRITING_DATE_UTC : 2018-02-07 18:07:07
_STATISTICS_TAGS : BPS DURATION NUMBER_OF_FRAMES NUMBER_OF_BYTES

Видео
Идентификатор : 1
Формат : AVC
Формат/Информация : Advanced Video Codec
Профиль формата : High@L3.1
Параметр CABAC формата : Нет
Параметр ReFrames формата : 2 кадра
Идентификатор кодека : V_MPEG4/ISO/AVC
Продолжительность : 2 ч. 4 м.
Битрейт : 4043 Кбит/сек
Ширина : 1280 пикселей
Высота : 688 пикселей
Соотношение сторон : 1,860
Частота кадров : 23,976 кадра/сек
Цветовое пространство : YUV
Субдискретизация насыщенности : 4:2:0
Битовая глубина : 8 бит
Тип развёртки : Прогрессивная
Бит/(Пиксели*Кадры) : 0.191
Размер потока : 3,53 Гбайт (90%)
Язык : English
Default : Да
Forced : Нет
Основные цвета : BT.709-5, BT.1361, IEC 61966-2-4, SMPTE RP177
Характеристики трансфера : BT.709-5, BT.1361
Коэффициенты матрицы : BT.709-5, BT.1361, IEC 61966-2-4 709, SMPTE RP177

Аудио
Идентификатор : 2
Формат : AC-3
Формат/Информация : Audio Coding 3
Расширение режима : CM (complete main)
Идентификатор кодека : A_AC3
Продолжительность : 2 ч. 4 м.
Вид битрейта : Постоянный
Битрейт : 384 Кбит/сек
Каналы : 6 каналов
Расположение каналов : Front: L C R, Side: L R, LFE
Частота : 48,0 КГц
Битовая глубина : 16 бит
Метод сжатия : С потерями
Размер потока : 343 Мбайт (9%)
Язык : English
Default : Да
Forced : Нет

Текст #1
Идентификатор : 3
Формат : UTF-8
Идентификатор кодека : S_TEXT/UTF8
Идентификатор кодека/Информация : UTF-8 Plain Text
Язык : Russian
Default : Нет
Forced : Нет

Текст #2
Идентификатор : 4
Формат : UTF-8
Идентификатор кодека : S_TEXT/UTF8
Идентификатор кодека/Информация : UTF-8 Plain Text
Язык : English
Default : Да
Forced : Нет

Меню
00:00:00.000 : en:1
00:05:21.029 : en:2
00:10:18.951 : en:3
00:14:00.589 : en:4
00:22:34.060 : en:5
00:29:24.178 : en:6
00:37:10.519 : en:7
00:41:05.587 : en:8
00:48:27.904 : en:9
00:56:17.498 : en:10
01:02:39.463 : en:11
01:10:58.003 : en:12
01:18:42.467 : en:13
01:24:06.791 : en:14
01:30:26.629 : en:15
01:35:59.753 : en:16
01:39:34.968 : en:17
01:45:21.105 : en:18
01:52:56.226 : en:19
01:59:46.010 : en:20



Скриншоты:
[+] Всего файлов в раздаче - 1:
The.Darkest.Hour.2017.720p.WEB-DL.H264.AC3.RUS.SUB.mkv3.94 GB

Текущая раздача:
ДатаКомментарии    РазмерПиры
2018-02-08 U Темные времена / Darkest Hour (2017) WEB-DL 720p | Sub 3.94 GB ↑ 69 ↓ 32

Показать еще раздачи по запросу темные:
2018-02-12 U Темные времена / Darkest Hour (2017) WEB-DL 1080p | Sub 4.60 GB ↑ 46 ↓ 19
2018-01-08 U Очень тёмные времена / Super Dark Times (2017) HDRip 720p | L 3.29 GB ↑ 94 ↓ 42
2018-01-08 U Очень тёмные времена / Super Dark Times (2017) HDRip | L 1.36 GB ↑ 241 ↓ 83
2017-12-23 U Темные истории 12: Эдгар Аллан По. Морелла. Коллекционное издание / Dark Tales 12: Edgar Allan Poe's Morella. Collector's Edition (2017) PC 874.09 MB ↑ 281 ↓ 41
2017-12-12 U Гиллиан Флинн - Тёмные тайны (2017) MP3 756.47 MB ↑ 56 ↓ 5
2017-11-04 U Темные предания 13: Реквием по забытой тени / Dark Parables 13: Requiem for the Forgotten Shadow CE (2017) PC 1.04 GB ↑ 105 ↓ 17
2017-10-07 U Очень тёмные времена / Super Dark Times (2017) HDRip | L1 2.04 GB ↑ 133 ↓ 89

Отзывы
Зарегистрируйтесь чтобы добавить комментарий.
Обратная связь
Copyleft ©