↑↓Torrent.by
Поиск
Логин: Регистрация
Пароль: Восстановить пароль
Загрузка...

Викинг (2016) BDRip-AVC от New-Team | Расширенная версия | Лицензия

Скачать viking-2016-bdrip-avc-ot-new-team-rasshirennaya-versiya-licenziya.torrent
U Магнитная ссылка Размер: 4.62 GB Раздают: 112 Качают: 68 Добавлен: 2018-02-09 18:01:37
Викинг (2016) BDRip-AVC от New-Team | Расширенная версия | Лицензия

Викинг

«Тебе нужно увидеть, чтобы поверить»

Страна: Россия
Жанр:  история, драма

Год выпуска: 2016
Продолжительность: 02:22:07

Перевод: Не требуется
Cубтитры: русские (форсированные, вшитые)
Оригинальная аудиодорожка: русский

Режиссер: Андрей Кравчук

В ролях: Данила Козловский, Светлана Ходченкова, Максим Суханов, Игорь Петренко, Андрей Смоляков, Владимир Епифанцев, Александра Бортич, Кирилл Плетнёв, Александр Устюгов, Ростислав Бершауэр, Павел Делонг, Алексей Демидов

Описание:
Раннее Средневековье. Время тяжелых мечей и темных законов крови. Правящий род в раздоре. Вина за случайную смерть брата легла на Великого Князя. По закону мстить ему должен младший брат — бастард. За отказ убивать он заплатит всем, что у него было, потому что «для мира нужно больше мечей, чем для войны».

Релиз:

Автор рипа: stalkerok

Семпл

Качество видео: BDRip-AVC [Викинг (2016) Blu-ray disc 1080p [RUS] [UNRATED]]
Формат видео: MKV
Видео кодек: AVC
Аудио кодек: AC3
Видео: 4199 Кбит/сек, 1152x484  (2,40:1), в 24,000 кадра/сек, AVC
Аудио: русский, 448 Кбит/сек, 48,0 КГц, 6 каналов, AC3 Blu-ray RUS
Навигация по главам: есть


[+] x264/MediaInfo


---[Information] [07.02.2018 2:48:12] x264 [info]: frame I:1497  Avg QP:17.74  size: 81730
---[Information] [07.02.2018 2:48:12] x264 [info]: frame P:50719 Avg QP:19.46  size: 38329
---[Information] [07.02.2018 2:48:12] x264 [info]: frame B:152435 Avg QP:21.57  size: 15807

Общее
Уникальный идентификатор                 : 221928509716560599357487799667262344034 (0xA6F5E0511C15269CA73FB7B5278DCB62)
Полное имя                               : M:!!!!!!Rips2Viking.2016Viking.2016.BDRip-AVC..RUS.stalkerok.new-team.mkv
Формат                                   : Matroska
Версия формата                           : Version 4 / Version 2
Размер файла                             : 4,62 Гбайт
Продолжительность                        : 2 ч. 22 м.
Общий поток                              : 4649 Кбит/сек
Название фильма                          : Викинг (2016) (Rip by stalkerok)
Дата кодирования                         : UTC 2018-02-09 12:29:01
Программа кодирования                    : mkvmerge v8.6.1 ('Flying') 64bit
Библиотека кодирования                   : libebml v1.3.3 + libmatroska v1.4.4

Видео
Идентификатор                            : 1
Формат                                   : AVC
Формат/Информация                        : Advanced Video Codec
Профиль формата                          : High@L4.1
Параметр CABAC формата                   : Да
Параметр ReFrames формата                : 12 кадров
Идентификатор кодека                     : V_MPEG4/ISO/AVC
Продолжительность                        : 2 ч. 22 м.
Битрейт                                  : 4199 Кбит/сек
Ширина                                   : 1152 пикселя
Высота                                   : 484 пикселя
Соотношение сторон                       : 2,40:1
Режим частоты кадров                     : Постоянный
Частота кадров                           : 24,000 кадра/сек
Цветовое пространство                    : YUV
Субдискретизация насыщенности            : 4:2:0
Битовая глубина                          : 8 бит
Тип развёртки                            : Прогрессивная
Бит/(Пиксели*Кадры)                      : 0.314
Размер потока                            : 4,17 Гбайт (90%)
Заголовок                                : Викинг (2016) (Rip by stalkerok)
Библиотека кодирования                   : x264 core 152 r2851kMod ba24899
Настройки программы                      : cabac=1 / ref=12 / deblock=1:-3:-2 / analyse=0x3:0x133 / me=umh / subme=11 / psy=1 / fade_compensate=0.00 / psy_rd=1.00:0.00 / mixed_ref=1 / me_range=32 / chroma_me=1 / trellis=2 / 8x8dct=1 / cqm=0 / deadzone=21,11 / fast_pskip=0 / chroma_qp_offset=-2 / threads=12 / lookahead_threads=3 / sliced_threads=0 / nr=0 / decimate=1 / interlaced=0 / bluray_compat=0 / constrained_intra=0 / bframes=13 / b_pyramid=2 / b_adapt=2 / b_bias=0 / direct=3 / weightb=1 / open_gop=0 / weightp=2 / keyint=240 / keyint_min=23 / scenecut=40 / intra_refresh=0 / rc_lookahead=60 / rc=crf / mbtree=0 / crf=18.2000 / qcomp=0.65 / qpmin=0 / qpmax=69 / qpstep=4 / vbv_maxrate=50000 / vbv_bufsize=62500 / crf_max=0.0 / nal_hrd=none / filler=0 / ip_ratio=1.40 / pb_ratio=1.30 / aq=3:0.85 / zones=193374,204650,q=32
Default                                  : Да
Forced                                   : Нет

Аудио
Идентификатор                            : 2
Формат                                   : AC-3
Формат/Информация                        : Audio Coding 3
Расширение режима                        : CM (complete main)
Параметр Endianness формата              : Big
Идентификатор кодека                     : A_AC3
Продолжительность                        : 2 ч. 22 м.
Вид битрейта                             : Постоянный
Битрейт                                  : 448 Кбит/сек
Каналы                                   : 6 каналов
Расположение каналов                     : Front: L C R, Side: L R, LFE
Частота                                  : 48,0 КГц
Частота кадров                           : 31,250 кадров/сек (1536 spf)
Метод сжатия                             : С потерями
Размер потока                            : 455 Мбайт (10%)
Язык                                     : Russian
Default                                  : Да
Forced                                   : Нет

Меню
00:00:00.000                             : en:Chapter 1
00:01:24.791                             : en:Chapter 2
00:12:35.458                             : en:Chapter 3
00:27:32.375                             : en:Chapter 4
00:43:47.000                             : en:Chapter 5
01:01:19.000                             : en:Chapter 6
01:21:34.125                             : en:Chapter 7
01:41:53.416                             : en:Chapter 8
01:57:32.750                             : en:Chapter 9




Скриншоты:
[+] Всего файлов в раздаче - 1:
Viking.2016.BDRip-AVC..RUS.stalkerok.new-team.mkv4.62 GB

Текущая раздача:
ДатаКомментарии    РазмерПиры
2018-02-09 U Викинг (2016) BDRip-AVC от New-Team | Расширенная версия | Лицензия 4.62 GB ↑ 112 ↓ 68

Показать еще раздачи по запросу викинг:
2018-02-10 U Викинг (2016) BDRip-AVC от New-Team | Расширенная версия | Лицензия 1.46 GB ↑ 165 ↓ 44
2017-12-16 U Викинг: Берсеркеры / Viking: The Berserkers (2014) BDRip | P 1.50 GB ↑ 54 ↓ 30
2017-12-03 U Майк Викинг - Hygge. Секрет датского счастья (2016) FB2 37.11 MB ↑ 133 ↓ 9
2017-05-21 U Викинг (2016) BDRip-AVC от OlLanDGroup | Rus Transfer | Расширенная версия | Лицензия 1.46 GB ↑ 186 ↓ 34
2017-05-17 U Викинг (2016) BDRip 720p от k.e.n & MegaPeer | Rus Transfer | Расширенная версия | Лицензия 1К5.74 GB ↑ 134 ↓ 44
2017-05-10 U Викинг (2016) BDRip 720p от KinoGadget | iPad | GER Transfer | Лицензия 1К2.98 GB ↑ 502 ↓ 47
2017-05-01 U Викинг (2016) BDRip от ExKinoRay | GER Transfer | Расширенная версия | Лицензия 1К2.18 GB ↑ 160 ↓ 29

Отзывы
Зарегистрируйтесь чтобы добавить комментарий.
Обратная связь
Copyleft ©