↑↓Torrent.by
Поиск
Логин: Регистрация
Пароль: Восстановить пароль
Загрузка...

Бэтмен: Готэм в газовом свете / Batman: Gotham by Gaslight (2018) WEBRip от Portablius | Flarrow Films

Скачать betmen-gotem-v-gazovom-svete-batman-gotham-by-gaslight-2018-webrip-ot-portablius-flarrow-films.torrent
U Магнитная ссылка Размер: 697.62 MB Раздают: 100 Качают: 24 Добавлен: 2018-02-10 09:27:27
Бэтмен: Готэм в газовом свете / Batman: Gotham by Gaslight (2018) WEBRip от Portablius | Flarrow Films

Название: Бэтмен: Готэм в газовом свете
Оригинальное название: Batman: Gotham by Gasligh
Год выхода: 2018
Жанр: боевик, детектив, история, криминал, мультфильмы, приключения, фэнтези
Режиссер: Сэм Лью
В ролях: Брюс Гринвуд, Энтони Хэд, Скотт Гордон-Паттерсон, Грэй ДеЛисл, Кари Вурер, Линкольн Мелчер, Юрий Ловенталь, Джон Ди Маджио, Дженнифер Карпентер, Тара Стронг и другие

О фильме: В альтернативной ситуации, в 1889 г., Брюс Уэйн возвратится в Готэм из своего странствия по Европе. Городок викторианской эпохи всё так же притягивает злоумышленников. Цепочка таинственных и бесчеловечных убийств вынуждает обитателей предполагать, что киллер — Бэтмен. Тёмному Рыцарю кидает вызов самый знаменитый маньяк XIX столетия — Джек-потрошитель

Страна: США
Продолжительность: 01:17:02
Перевод: Любительский (многоголосый, закадровый) | Flarrow Films
Субтитры: Нет

Файл
Кодек: XviD
Качество: WEBRip
Видео: 688x384 (1.79:1), 23.976 fps, XviD build 73 ~1064 kbps avg, 0.17 bit/pixel
Звук: 48 kHz, MPEG Layer 3, 2 ch, ~192.00 kbps avg
[+] MediaInfo
General
Complete name               : Batman.Gotham.by.Gasligh.2018.WEBRip.ot.Portablius.avi
Format                      : AVI
Format/Info                 : Audio Video Interleave
File size                   : 698 MiB
Duration                    : 1 h 17 min
Overall bit rate            : 1 266 kb/s
Writing application         : VirtualDubMod 1.5.10.3 | www.virtualdub-fr.org || (build 2550/release)
Writing library             : VirtualDubMod build 2550/release

Video
ID                          : 0
Format                      : MPEG-4 Visual
Format profile              : Advanced Simple@L5
Format settings, BVOP       : 1
Format settings, QPel       : No
Format settings, GMC        : No warppoints
Format settings, Matrix     : Custom
Codec ID                    : XVID
Codec ID/Hint               : XviD
Duration                    : 1 h 17 min
Bit rate                    : 1 065 kb/s
Width                       : 688 pixels
Height                      : 384 pixels
Display aspect ratio        : 16:9
Frame rate                  : 23.976 (24000/1001) FPS
Original frame rate         : 23.976 (23976/1000) FPS
Color space                 : YUV
Chroma subsampling          : 4:2:0
Bit depth                   : 8 bits
Scan type                   : Progressive
Compression mode            : Lossy
Bits/(Pixel*Frame)          : 0.168
Stream size                 : 587 MiB (84%)
Writing library             : XviD 73

Audio
ID                          : 1
Format                      : MPEG Audio
Format version              : Version 1
Format profile              : Layer 3
Codec ID                    : 55
Codec ID/Hint               : MP3
Duration                    : 1 h 17 min
Bit rate mode               : Constant
Bit rate                    : 192 kb/s
Channel(s)                  : 2 channels
Sampling rate               : 48.0 kHz
Compression mode            : Lossy
Stream size                 : 106 MiB (15%)
Alignment                   : Aligned on interleaves
Interleave, duration        : 42  ms (1.00 video frame)
Interleave, preload duratio : 504  ms
Writing library             : LAME3.99r
Encoding settings           : -m s -V 4 -q 2 -lowpass 18.6 -b 192




Скриншоты:
[+] Всего файлов в раздаче - 1:
Batman.Gotham.by.Gasligh.2018.WEBRip.ot.Portablius.avi697.62 MB

Показать еще раздачи по запросу бэтмен:
2018-06-20 U Бэтмен: Убийственная шутка / Batman: The Killing Joke (2016) BDRip от ExKinoRay | D 1.46 GB ↑ 67 ↓ 12
2018-04-30 U Бэтмен-ниндзя / Batman Ninja (2018) WEB-DLRip 720p | Flarrow Films 3.22 GB ↑ 91 ↓ 29
2018-04-26 U Бэтмен-ниндзя / Batman Ninja (2018) BDRip 1080p | L1 6.76 GB ↑ 92 ↓ 56
2018-04-26 U Бэтмен-ниндзя / Batman Ninja (2018) WEB-DL 720p | L1 2.84 GB ↑ 138 ↓ 70
2018-04-14 U Бэтмен: Готэм в газовом свете / Batman: Gotham by Gaslight (2018) HDRip | Jaskier 1.37 GB ↑ 118 ↓ 22
2018-02-05 U Бэтмен: Готэм в газовом свете / Batman: Gotham by Gaslight (2018) BDRip 720p от potroks | L 2.06 GB ↑ 123 ↓ 47
2018-02-05 U Бэтмен: Готэм в газовом свете / Batman: Gotham by Gaslight (2018) WEBRip 720p | Flarrow Films 2.39 GB ↑ 396 ↓ 148

Отзывы
Зарегистрируйтесь чтобы добавить комментарий.
Обратная связь
Copyleft ©