↑↓Torrent.by
Поиск
Логин: Регистрация
Пароль: Восстановить пароль
Загрузка...

Восставший из ада: Приговор / Hellraiser: Judgment (2018) DVDRip | L2

Скачать vosstavshiy-iz-ada-prigovor-hellraiser-judgment-2018-dvdrip-l2.torrent
U Магнитная ссылка Размер: 1.39 GB Раздают: 624 Качают: 237 Добавлен: 2018-02-11 01:46:43
Восставший из ада: Приговор / Hellraiser: Judgment (2018) DVDRip | L2

Название: Восставший из ада: Приговор
Оригинальное название: Hellraiser: Judgment

Год выхода: 2018
Жанр: ужасы
Режиссер: Гэри Дж. Танниклифф
В ролях: Рэнди Уэйн, Хэзер Лэнгенкэмп, Риган Уоллес, Алексис Харрис, Джон Гулагер, Пол Т. Тейлор, Майк Дж. Риган, Дэймон Карни, Молли Никки Андерсон, Мэри Кэтрин Брайант и другие
О фильме:
Детективы Шон и Дэвид Картеры расследует дело о жутких серийных убийствах. Объединив усилия с другим детективом, Кристин Эджертон, они следуют за убийцей всё дальше и дальше в лабиринт ужаса, которому нет места в мире живых. Чем глубже они опускаются по спирали в преисподнюю, тем явственнее понимают, что они клюнули не на ту наживку. Похоже, сенобиты ждут вовсе не жертв маньяка.

Страна: США, Dimension Films
Продолжительность: 01:21:40
Перевод: Любительский (двухголосый закадровый) | HiWay Grope

Файл
Кодек: XviD
Качество: DVDRip
Видео: 720x400, 24 fps, ~2045 kbps avg, 0.30 bit/pixel
Звук:
Аудио rus: AC3, 48 kHz, 6 ch, 384 Kbps
Субтитры: отсутствуют

Реклама: присутствует

Семпл

Релиз от: HiWay Grope


[+] MediaInfo:

General
Complete name                            : E:Hellraiser.Judgment.2018.DVDRip.HiWayGropeHellraiser.Judgment.2018.DVDRip.HiWayGrope.avi
Format                                   : AVI
Format/Info                              : Audio Video Interleave
File size                                : 1.39 GiB
Duration                                 : 1h 21mn
Overall bit rate                         : 2 439 Kbps
Writing application                      : VirtualDubMod 1.5.10.3 (build 2550/release)
Writing library                          : VirtualDubMod build 2550/release

Video
ID                                       : 0
Format                                   : MPEG-4 Visual
Format profile                           : Advanced Simple@L5
Format settings, BVOP                    : 1
Format settings, QPel                    : No
Format settings, GMC                     : No warppoints
Format settings, Matrix                  : Default (MPEG)
Codec ID                                 : XVID
Codec ID/Hint                            : XviD
Duration                                 : 1h 21mn
Bit rate                                 : 2 045 Kbps
Width                                    : 720 pixels
Height                                   : 400 pixels
Display aspect ratio                     : 16:9
Frame rate                               : 23.976 (23976/1000) fps
Color space                              : YUV
Chroma subsampling                       : 4:2:0
Bit depth                                : 8 bits
Scan type                                : Progressive
Compression mode                         : Lossy
Bits/(Pixel*Frame)                       : 0.296
Stream size                              : 1.17 GiB (84%)
Writing library                          : XviD 73

Audio
ID                                       : 1
Format                                   : AC-3
Format/Info                              : Audio Coding 3
Mode extension                           : CM (complete main)
Format settings, Endianness              : Big
Codec ID                                 : 2000
Duration                                 : 1h 21mn
Bit rate mode                            : Constant
Bit rate                                 : 384 Kbps
Channel(s)                               : 6 channels
Channel positions                        : Front: L C R, Side: L R, LFE
Sampling rate                            : 48.0 KHz
Frame rate                               : 31.250 fps (1536 spf)
Compression mode                         : Lossy
Stream size                              : 224 MiB (16%)
Alignment                                : Split accross interleaves
Interleave, duration                     : 42 ms (1.00 video frame)
Interleave, preload duration             : 500 ms




Скриншоты:
[+] Всего файлов в раздаче - 1:
Hellraiser.Judgment.2018.DVDRip.HiWayGrope.avi1.39 GB

Текущая раздача:
ДатаКомментарии    РазмерПиры
2018-02-11 U Восставший из ада: Приговор / Hellraiser: Judgment (2018) DVDRip | L2 1.39 GB ↑ 624 ↓ 237

Показать еще раздачи по запросу восставший:
2018-02-17 U Восставший из ада: Приговор / Hellraiser: Judgment (2018) BDRip 1080p | L 5.57 GB ↑ 157 ↓ 56
2018-02-16 U Восставший из ада: Приговор / Hellraiser: Judgment (2018) HDRip 720p | L2 3.00 GB ↑ 89 ↓ 58
2018-02-16 U Восставший из ада 10: Приговор / Hellraiser: Judgment (2018) HDRip от Dalemake | L 1К1.46 GB ↑ 140 ↓ 65
2017-08-31 U Восставший / Risen (2016) BDRip от HQ-ViDEO | Лицензия 1К2.18 GB ↑ 105 ↓ 31
2016-09-01 U Восставший / Risen (2016) BDRip-AVC от HELLYWOOD | iTunes 1.41 GB ↑ 199 ↓ 27
2016-07-09 U Восставший / Risen (2016) HDRip от Scarabey | iTunes 1К1.40 GB ↑ 657 ↓ 2
2016-07-07 U Восставший / Risen (2016) BDRip 720p от ExKinoRay | iTunes 6.28 GB ↑ 148 ↓ 39

Отзывы
Зарегистрируйтесь чтобы добавить комментарий.
Обратная связь
Copyleft ©