↑↓Torrent.by
Поиск
Логин: Регистрация
Пароль: Восстановить пароль
Загрузка...

Убийство в Восточном экспрессе / Murder on the Orient Express (2017) HDRip-AVC от ExKinoRay | L

Скачать ubiystvo-v-vostochnom-ekspresse-murder-on-the-orient-express-2017-hdrip-avc-ot-exkinoray-l.torrent
U Магнитная ссылка Размер: 746.63 MB Раздают: 295 Качают: 97 Добавлен: 2018-02-11 01:56:52
Убийство в Восточном экспрессе / Murder on the Orient Express (2017) HDRip-AVC от ExKinoRay | L

Название: Убийство в Восточном экспрессе
Оригинальное название: Murder on the Orient Express
Год выхода: 2017
Жанр: Драма, криминал, детектив
Режиссер: Кеннет Брана
В ролях: Кеннет Брана, Пенелопа Крус, Уиллем Дефо, Джуди Денч, Джонни Депп, Джош Гад, Дерек Джекоби, Лесли Одом мл., Мишель Пфайффер, Дэйзи Ридли

О фильме :
В центре сюжета известный на весь мир бельгийский сыщик Пуаро, которому в срочном порядке нужно посетить Великобританию. Для путешествия он выбирает один из самых роскошных поездов Европы под названием "Восточный экспресс", несмотря на то, что все билеты раскуплены, директор компании, которой принадлежит экспресс находит лишний билет для Пуаро. Уставший сыщик ложится спать, но из за сильной вьюги и снегопада поезд совершает вынужденную остановку и Пуаро сообщают, что в экспрессе совершено убийство. Это криминальное дело, превращается в самое сложное и захватывающее в истории гениального сыщика, купе с трупом заперто изнутри, под подозрением все тридцать пассажиров поезда.

Выпущено:  США, Великобритания, Мальта, Канада
Продолжительность: 01:53:55
Перевод: Любительский (многоголосый закадровый) «GreenРай Studio»

Файл
Формат: MKV
Качество: HDRip-AVC
Видео: MPEG-4 AVC, 768x320, ~ 838 Кбит/с
Аудио:  AAC-LC, 2 ch, ~ 76 Кбит/с
Субтитры: Нет

Релиз:


[+] MI
Общее
Уникальный идентификатор : 234160432703472982809738753811252826153 (0xB029A8AE8CECCBCC9D264AFB44F4D029)
Полное имя : D:MOVIESMurder.on.the.Orient.Express.2017.ExKinoRay.mkv
Формат : Matroska
Версия формата : Version 4 / Version 2
Размер файла : 747 Мбайт
Продолжительность : 1 ч. 53 м.
Общий поток : 916 Кбит/сек
Дата кодирования : UTC 2018-02-10 13:28:12
Программа кодирования : mkvmerge v15.0.0 ('Duel with the Devil') 64-bit
Библиотека кодирования : libebml v1.3.5 + libmatroska v1.4.5

Видео
Идентификатор : 1
Формат : AVC
Формат/Информация : Advanced Video Codec
Профиль формата : High@L4.1
Параметр CABAC формата : Да
Параметр RefFrames формата : 10 кадров
Идентификатор кодека : V_MPEG4/ISO/AVC
Продолжительность : 1 ч. 53 м.
Битрейт : 838 Кбит/сек
Ширина : 768 пикселей
Высота : 320 пикселей
Соотношение сторон : 2,40:1
Режим частоты кадров : Постоянный
Частота кадров : 23,976 (24000/1001) кадра/сек
Цветовое пространство : YUV
Субдискретизация насыщенности : 4:2:0
Битовая глубина : 8 бит
Тип развёртки : Прогрессивная
Бит/(Пиксели*Кадры) : 0.142
Размер потока : 683 Мбайт (91%)
Библиотека кодирования : x264 core 152 r2851 ba24899
Настройки программы : cabac=1 / ref=10 / deblock=1:-3:-3 / analyse=0x3:0x133 / me=umh / subme=11 / psy=1 / psy_rd=1.00:0.10 / mixed_ref=1 / me_range=32 / chroma_me=1 / trellis=2 / 8x8dct=1 / cqm=0 / deadzone=21,11 / fast_pskip=0 / chroma_qp_offset=-3 / threads=6 / lookahead_threads=1 / sliced_threads=0 / nr=0 / decimate=0 / interlaced=0 / bluray_compat=0 / constrained_intra=0 / bframes=10 / b_pyramid=2 / b_adapt=2 / b_bias=0 / direct=3 / weightb=1 / open_gop=0 / weightp=2 / keyint=240 / keyint_min=23 / scenecut=40 / intra_refresh=0 / rc_lookahead=40 / rc=2pass / mbtree=0 / bitrate=838 / ratetol=1.0 / qcomp=0.60 / qpmin=0 / qpmax=69 / qpstep=4 / cplxblur=20.0 / qblur=0.5 / vbv_maxrate=50000 / vbv_bufsize=62500 / nal_hrd=none / filler=0 / ip_ratio=1.40 / pb_ratio=1.30 / aq=1:1.00
Default : Да
Forced : Нет

Аудио
Идентификатор : 2
Формат : AAC
Формат/Информация : Advanced Audio Codec
Профиль формата : LC
Идентификатор кодека : A_AAC
Продолжительность : 1 ч. 53 м.
Битрейт : 76,0 Кбит/сек
Каналы : 2 канала
Расположение каналов : Front: L R
Частота : 48,0 КГц
Частота кадров : 46,875 кадров/сек (1024 SPF)
Метод сжатия : С потерями
Задержка видео : 9 мс.
Размер потока : 61,9 Мбайт (8%)
Default : Да
Forced : Нет

Меню
00:00:00.000 : en:00:00:00.000
00:03:06.144 : en:00:03:06.144
00:06:42.193 : en:00:06:42.193
00:11:44.746 : en:00:11:44.746
00:18:26.188 : en:00:18:26.188
00:24:53.659 : en:00:24:53.659
00:33:14.159 : en:00:33:14.159
00:37:47.515 : en:00:37:47.515
00:43:16.511 : en:00:43:16.511
00:46:24.865 : en:00:46:24.865
00:51:23.580 : en:00:51:23.580
00:55:52.015 : en:00:55:52.015
01:00:03.183 : en:01:00:03.183
01:05:39.227 : en:01:05:39.227
01:10:40.153 : en:01:10:40.153
01:14:17.578 : en:01:14:17.578
01:18:05.055 : en:01:18:05.055
01:21:12.284 : en:01:21:12.284
01:24:39.366 : en:01:24:39.366
01:28:37.854 : en:01:28:37.854
01:32:28.376 : en:01:32:28.376
01:37:04.652 : en:01:37:04.652
01:40:30.024 : en:01:40:30.024
01:46:49.903 : en:01:46:49.903



Скриншоты:
[+] Всего файлов в раздаче - 1:
Murder.on.the.Orient.Express.2017.ExKinoRay.mkv746.63 MB

Текущая раздача:
ДатаКомментарии    РазмерПиры
2018-02-11 U Убийство в Восточном экспрессе / Murder on the Orient Express (2017) HDRip-AVC от ExKinoRay | L 746.63 MB ↑ 295 ↓ 97

Показать еще раздачи по запросу убийство:
2018-02-17 U Убийство в Восточном экспрессе / Murder on the Orient Express (2017) BDRemux 1080p от MediaClub | L 22.41 GB ↑ 38 ↓ 138
2018-02-13 U Убийство в Восточном экспрессе / Murder on the Orient Express (2017) BDRip 720p | L 5.57 GB ↑ 50 ↓ 28
2018-02-11 U Убийство в Восточном экспрессе / Murder on the Orient Express (2017) BDRip 1080p | L 8.21 GB ↑ 1406 ↓ 1135
2018-02-10 U Убийство в Восточном экспрессе / Murder on the Orient Express (2017) HDRip от Dalemake | L 1.46 GB ↑ 484 ↓ 306
2018-02-04 U Убийство в Восточном экспрессе / Murder on the Orient Express (2017) WEBRip 720p | L 3.12 GB ↑ 4481 ↓ 1049
2018-02-04 U Убийство в Восточном экспрессе / Murder on the Orient Express (2017) WEBRip | L 1.37 GB ↑ 940 ↓ 458
2018-01-24 U Убийство в маленьком городе / A Killing in a Small Town (1990) DVDRip | P2 1К1.46 GB ↑ 32 ↓ 19

Отзывы
Зарегистрируйтесь чтобы добавить комментарий.
Обратная связь
Copyleft ©