↑↓Torrent.by
Поиск
Логин: Регистрация
Пароль: Восстановить пароль
Загрузка...

Горец / Highlander (1986) BDRip 1080p | P, A | Remastered

Скачать gorec-highlander-1986-bdrip-1080p-p-a-remastered.torrent
U Магнитная ссылка Размер: 12.77 GB Раздают: 76 Качают: 33 Добавлен: 2018-02-11 04:58:46
Горец / Highlander (1986) BDRip 1080p | P, A | Remastered

Название: Горец
Оригинальное название: Highlander
Год выпуска: 1986
Страна: США
Жанр:  Боевик, фэнтези, приключения
Продолжительность: 01:56:38

Перевод: Профессиональный (многоголосый закадровый), Superbit
Перевод: Профессиональный (многоголосый закадровый), Video-BIZ
Перевод: Профессиональный (многоголосый закадровый), СТС
Перевод: Профессиональный (многоголосый закадровый), ОРТ
Перевод: Профессиональный (многоголосый закадровый), НЕВА 1
Перевод: Профессиональный (многоголосый закадровый), НТВ  
Перевод: Авторский (одноголосый закадровый), А. Гаврилов
Перевод: Авторский (одноголосый закадровый), В. Горчаков
Перевод: Авторский (одноголосый закадровый), Ю. Живов
Перевод: Авторский (одноголосый закадровый), М. Яроцкий (Киберпанк)
Перевод: Авторский (одноголосый закадровый), С. Визгунов
Перевод: Авторский (одноголосый закадровый), Ю. Товбин
Перевод: Авторский (одноголосый закадровый), Л. Володарский
Перевод: Авторский (одноголосый закадровый), Зереницин
Субтитры: Русские (1 полные + 1 форсированные) , английские

Режиссер: Рассел Малкэй

В ролях: Кристофер Ламберт, Шон Коннери, Роксэнн Харт, Клэнси Браун, Бети Эдни, Алан Норт, Джон Полито, Шила Гиш, Хью Куарши, Кристофер Малкольм

Описание: Коннор Маклауд — шотландец, который в 1536 году был сражен в битве, но мистическим образом воскрес, и родной клан изгнал его. Учителем Маклауда стал испанский дворянин, объяснивший, что он принадлежит к бессмертной расе воинов, которых можно лишить жизни, лишь обезглавив мечом… Сражение между Маклаудом и его вечным врагом Курганом, начавшееся в Шотландии XVI века, подолжается в современном Манхеттене. От исхода этой битвы зависит судьба всех смертных. Это часть дуэли, продолжающейся веками...

Файл
Качество: BDRip 1080p
Формат: MKV
Видео кодек: H264
Аудио кодек: AC3
Видео: MPEG4 Video (H264), 1920x1032, 24fps , 11.0 Mbps
Аудио #01: Русский: Dolby AC3, 48000 Hz, 6ch, 448 kbps - Многоголосый, Superbit
Аудио #02: Русский: Dolby AC3, 48000 Hz, 6ch, 448 kbps - Многоголосый, Video-BIZ
Аудио #03: Русский: Dolby AC3, 48000 Hz, 2ch, 192 kbps - Многоголосый, СТС
Аудио #04: Русский: Dolby AC3, 48000 Hz, 2ch, 192 kbps - Многоголосый, ОРТ  
Аудио #05: Русский: Dolby AC3, 48000 Hz, 2ch, 192 kbps - Многоголосый, НЕВА 1  
Аудио #06: Русский: Dolby AC3, 48000 Hz, 2ch, 192 kbps - Многоголосый, НТВ
Аудио #07: Русский: Dolby AC3, 48000 Hz, 6ch, 448 kbps - Одноголосый, А. Гаврилов
Аудио #08: Русский: Dolby AC3, 48000 Hz, 6ch, 448 kbps - Одноголосый, В. Горчаков
Аудио #09: Русский: Dolby AC3, 48000 Hz, 6ch, 448 kbps - Одноголосый, Ю. Живов
Аудио #10: Русский: Dolby AC3, 48000 Hz, 6ch, 448 kbps - Одноголосый, М. Яроцкий (Киберпанк)
Аудио #11: Русский: Dolby AC3, 48000 Hz, 2ch, 192 kbps - Одноголосый, С. Визгунов
Аудио #12: Русский: Dolby AC3, 48000 Hz, 2ch, 192 kbps - Одноголосый, Ю. Товбин
Аудио #13: Русский: Dolby AC3, 48000 Hz, 2ch, 192 kbps - Одноголосый, Л. Володарский
Аудио #14: Русский: Dolby AC3, 48000 Hz, 2ch, 192 kbps - Одноголосый, Зереницин  
Аудио #15: Английский: Dolby AC3, 48000 Hz, 6ch, 448 kbps
Формат субтитров: Softsub (SRT)

Семпл


[+] MediaInfo:
General
Unique ID                      : 241433222321476443010354585684879916748 (0xB5A258E4F9A232CD9F4A778DCA7CBECC)
Complete name                  : F:Torrent 21986.Highlander.renta23.mkv
Format                         : Matroska
Format version                 : Version 4 / Version 2
File size                      : 12.8 GiB
Duration                       : 1 h 56 min
Overall bit rate               : 15.7 Mb/s
Movie name                     : 1986 Горец / renta23
Encoded date                   : UTC 2016-08-30 18:56:03
Writing application            : mkvmerge v8.3.0 ('Over the Horizon') 64bit
Writing library                : libebml v1.3.1 + libmatroska v1.4.2

Video
ID                             : 1
Format                         : AVC
Format/Info                    : Advanced Video Codec
Format profile                 : High@L4.1
Format settings, CABAC         : Yes
Format settings, ReFrames      : 4 frames
Codec ID                       : V_MPEG4/ISO/AVC
Duration                       : 1 h 56 min
Bit rate                       : 11.0 Mb/s
Width                          : 1 920 pixels
Height                         : 1 032 pixels
Display aspect ratio           : 1.85:1
Frame rate mode                : Constant
Frame rate                     : 24.000 FPS
Color space                    : YUV
Chroma subsampling             : 4:2:0
Bit depth                      : 8 bits
Scan type                      : Progressive
Bits/(Pixel*Frame)             : 0.231
Stream size                    : 8.96 GiB (70%)
Title                          : 1986 Горец
Writing library                : x264 core 146 r2538 121396c
Encoding settings              : cabac=1 / ref=4 / deblock=1:-1:-1 / analyse=0x3:0x133 / me=umh / subme=11 / psy=1 / psy_rd=1.00:0.15 / mixed_ref=1 / me_range=32 / chroma_me=1 / trellis=2 / 8x8dct=1 / cqm=0 / deadzone=21,11 / fast_pskip=0 / chroma_qp_offset=-3 / threads=12 / lookahead_threads=3 / sliced_threads=0 / nr=0 / decimate=1 / interlaced=0 / bluray_compat=0 / constrained_intra=0 / bframes=12 / b_pyramid=2 / b_adapt=2 / b_bias=0 / direct=3 / weightb=1 / open_gop=0 / weightp=2 / keyint=250 / keyint_min=23 / scenecut=40 / intra_refresh=0 / rc=2pass / mbtree=0 / bitrate=11000 / ratetol=1.0 / qcomp=0.60 / qpmin=0 / qpmax=69 / qpstep=4 / cplxblur=20.0 / qblur=0.5 / ip_ratio=1.40 / pb_ratio=1.30 / aq=2:1.00
Language                       : English
Default                        : Yes
Forced                         : No

Audio #1
ID                             : 2
Format                         : AC-3
Format/Info                    : Audio Coding 3
Mode extension                 : CM (complete main)
Format settings, Endianness    : Big
Codec ID                       : A_AC3
Duration                       : 1 h 56 min
Bit rate mode                  : Constant
Bit rate                       : 448 kb/s
Channel(s)                     : 6 channels
Channel positions              : Front: L C R, Side: L R, LFE
Sampling rate                  : 48.0 kHz
Frame rate                     : 31.250 FPS (1536 spf)
Compression mode               : Lossy
Stream size                    : 374 MiB (3%)
Title                          : Многоголосый, Superbit
Language                       : Russian
Default                        : Yes
Forced                         : No

Audio #2
ID                             : 3
Format                         : AC-3
Format/Info                    : Audio Coding 3
Mode extension                 : CM (complete main)
Format settings, Endianness    : Big
Codec ID                       : A_AC3
Duration                       : 1 h 56 min
Bit rate mode                  : Constant
Bit rate                       : 448 kb/s
Channel(s)                     : 6 channels
Channel positions              : Front: L C R, Side: L R, LFE
Sampling rate                  : 48.0 kHz
Frame rate                     : 31.250 FPS (1536 spf)
Compression mode               : Lossy
Stream size                    : 374 MiB (3%)
Title                          : Многоголосый, Video-BIZ
Language                       : Russian
Default                        : No
Forced                         : No

Audio #3
ID                             : 4
Format                         : AC-3
Format/Info                    : Audio Coding 3
Mode extension                 : CM (complete main)
Format settings, Endianness    : Big
Codec ID                       : A_AC3
Duration                       : 1 h 56 min
Bit rate mode                  : Constant
Bit rate                       : 192 kb/s
Channel(s)                     : 2 channels
Channel positions              : Front: L R
Sampling rate                  : 48.0 kHz
Frame rate                     : 31.250 FPS (1536 spf)
Compression mode               : Lossy
Stream size                    : 160 MiB (1%)
Title                          : Многоголосый, СТС
Language                       : Russian
Default                        : No
Forced                         : No

Audio #4
ID                             : 5
Format                         : AC-3
Format/Info                    : Audio Coding 3
Mode extension                 : CM (complete main)
Format settings, Endianness    : Big
Codec ID                       : A_AC3
Duration                       : 1 h 56 min
Bit rate mode                  : Constant
Bit rate                       : 192 kb/s
Channel(s)                     : 2 channels
Channel positions              : Front: L R
Sampling rate                  : 48.0 kHz
Frame rate                     : 31.250 FPS (1536 spf)
Compression mode               : Lossy
Stream size                    : 160 MiB (1%)
Title                          : Многоголосый, ОРТ
Language                       : Russian
Default                        : No
Forced                         : No

Audio #5
ID                             : 6
Format                         : AC-3
Format/Info                    : Audio Coding 3
Mode extension                 : CM (complete main)
Format settings, Endianness    : Big
Codec ID                       : A_AC3
Duration                       : 1 h 56 min
Bit rate mode                  : Constant
Bit rate                       : 192 kb/s
Channel(s)                     : 2 channels
Channel positions              : Front: L R
Sampling rate                  : 48.0 kHz
Frame rate                     : 31.250 FPS (1536 spf)
Compression mode               : Lossy
Stream size                    : 160 MiB (1%)
Title                          : Многоголосый, НЕВА 1
Language                       : Russian
Default                        : No
Forced                         : No

Audio #6
ID                             : 7
Format                         : AC-3
Format/Info                    : Audio Coding 3
Mode extension                 : CM (complete main)
Format settings, Endianness    : Big
Codec ID                       : A_AC3
Duration                       : 1 h 56 min
Bit rate mode                  : Constant
Bit rate                       : 192 kb/s
Channel(s)                     : 2 channels
Channel positions              : Front: L R
Sampling rate                  : 48.0 kHz
Frame rate                     : 31.250 FPS (1536 spf)
Compression mode               : Lossy
Stream size                    : 160 MiB (1%)
Title                          : Многоголосый, НТВ
Language                       : Russian
Default                        : No
Forced                         : No

Audio #7
ID                             : 8
Format                         : AC-3
Format/Info                    : Audio Coding 3
Mode extension                 : CM (complete main)
Format settings, Endianness    : Big
Codec ID                       : A_AC3
Duration                       : 1 h 56 min
Bit rate mode                  : Constant
Bit rate                       : 448 kb/s
Channel(s)                     : 6 channels
Channel positions              : Front: L C R, Side: L R, LFE
Sampling rate                  : 48.0 kHz
Frame rate                     : 31.250 FPS (1536 spf)
Compression mode               : Lossy
Stream size                    : 374 MiB (3%)
Title                          : Одноголосый, А. Гаврилов
Language                       : Russian
Default                        : No
Forced                         : No

Audio #8
ID                             : 9
Format                         : AC-3
Format/Info                    : Audio Coding 3
Mode extension                 : CM (complete main)
Format settings, Endianness    : Big
Codec ID                       : A_AC3
Duration                       : 1 h 56 min
Bit rate mode                  : Constant
Bit rate                       : 448 kb/s
Channel(s)                     : 6 channels
Channel positions              : Front: L C R, Side: L R, LFE
Sampling rate                  : 48.0 kHz
Frame rate                     : 31.250 FPS (1536 spf)
Compression mode               : Lossy
Stream size                    : 374 MiB (3%)
Title                          : Одноголосый, В. Горчаков
Language                       : Russian
Default                        : No
Forced                         : No

Audio #9
ID                             : 10
Format                         : AC-3
Format/Info                    : Audio Coding 3
Mode extension                 : CM (complete main)
Format settings, Endianness    : Big
Codec ID                       : A_AC3
Duration                       : 1 h 56 min
Bit rate mode                  : Constant
Bit rate                       : 448 kb/s
Channel(s)                     : 6 channels
Channel positions              : Front: L C R, Side: L R, LFE
Sampling rate                  : 48.0 kHz
Frame rate                     : 31.250 FPS (1536 spf)
Compression mode               : Lossy
Stream size                    : 374 MiB (3%)
Title                          : Одноголосый, Ю. Живов
Language                       : Russian
Default                        : No
Forced                         : No

Audio #10
ID                             : 11
Format                         : AC-3
Format/Info                    : Audio Coding 3
Mode extension                 : CM (complete main)
Format settings, Endianness    : Big
Codec ID                       : A_AC3
Duration                       : 1 h 56 min
Bit rate mode                  : Constant
Bit rate                       : 448 kb/s
Channel(s)                     : 6 channels
Channel positions              : Front: L C R, Side: L R, LFE
Sampling rate                  : 48.0 kHz
Frame rate                     : 31.250 FPS (1536 spf)
Compression mode               : Lossy
Stream size                    : 374 MiB (3%)
Title                          : Одноголосый, М. Яроцкий (Киберпанк)
Language                       : Russian
Default                        : No
Forced                         : No

Audio #11
ID                             : 12
Format                         : AC-3
Format/Info                    : Audio Coding 3
Mode extension                 : CM (complete main)
Format settings, Endianness    : Big
Codec ID                       : A_AC3
Duration                       : 1 h 56 min
Bit rate mode                  : Constant
Bit rate                       : 192 kb/s
Channel(s)                     : 2 channels
Channel positions              : Front: L R
Sampling rate                  : 48.0 kHz
Frame rate                     : 31.250 FPS (1536 spf)
Compression mode               : Lossy
Stream size                    : 160 MiB (1%)
Title                          : Одноголосый, С. Визгунов
Language                       : Russian
Default                        : No
Forced                         : No

Audio #12
ID                             : 13
Format                         : AC-3
Format/Info                    : Audio Coding 3
Mode extension                 : CM (complete main)
Format settings, Endianness    : Big
Codec ID                       : A_AC3
Duration                       : 1 h 56 min
Bit rate mode                  : Constant
Bit rate                       : 192 kb/s
Channel(s)                     : 2 channels
Channel positions              : Front: L R
Sampling rate                  : 48.0 kHz
Frame rate                     : 31.250 FPS (1536 spf)
Compression mode               : Lossy
Stream size                    : 160 MiB (1%)
Title                          : Одноголосый, Ю. Товбин
Language                       : Russian
Default                        : No
Forced                         : No

Audio #13
ID                             : 14
Format                         : AC-3
Format/Info                    : Audio Coding 3
Mode extension                 : CM (complete main)
Format settings, Endianness    : Big
Codec ID                       : A_AC3
Duration                       : 1 h 56 min
Bit rate mode                  : Constant
Bit rate                       : 192 kb/s
Channel(s)                     : 2 channels
Channel positions              : Front: L R
Sampling rate                  : 48.0 kHz
Frame rate                     : 31.250 FPS (1536 spf)
Compression mode               : Lossy
Stream size                    : 160 MiB (1%)
Title                          : Одноголосый, Л. Володарский
Language                       : Russian
Default                        : No
Forced                         : No

Audio #14
ID                             : 15
Format                         : AC-3
Format/Info                    : Audio Coding 3
Mode extension                 : CM (complete main)
Format settings, Endianness    : Big
Codec ID                       : A_AC3
Duration                       : 1 h 56 min
Bit rate mode                  : Constant
Bit rate                       : 192 kb/s
Channel(s)                     : 2 channels
Channel positions              : Front: L R
Sampling rate                  : 48.0 kHz
Frame rate                     : 31.250 FPS (1536 spf)
Compression mode               : Lossy
Stream size                    : 160 MiB (1%)
Title                          : Одноголосый, Зереницин
Language                       : Russian
Default                        : No
Forced                         : No

Audio #15
ID                             : 16
Format                         : AC-3
Format/Info                    : Audio Coding 3
Mode extension                 : CM (complete main)
Format settings, Endianness    : Big
Codec ID                       : A_AC3
Duration                       : 1 h 56 min
Bit rate mode                  : Constant
Bit rate                       : 448 kb/s
Channel(s)                     : 6 channels
Channel positions              : Front: L C R, Side: L R, LFE
Sampling rate                  : 48.0 kHz
Frame rate                     : 31.250 FPS (1536 spf)
Compression mode               : Lossy
Stream size                    : 374 MiB (3%)
Language                       : English
Default                        : No
Forced                         : No

Text #1
ID                             : 17
Format                         : UTF-8
Codec ID                       : S_TEXT/UTF8
Codec ID/Info                  : UTF-8 Plain Text
Duration                       : 22 min
Bit rate                       : 3 b/s
Count of elements              : 15
Stream size                    : 606 Bytes (0%)
Language                       : Russian
Default                        : Yes
Forced                         : Yes

Text #2
ID                             : 18
Format                         : UTF-8
Codec ID                       : S_TEXT/UTF8
Codec ID/Info                  : UTF-8 Plain Text
Duration                       : 1 h 52 min
Bit rate                       : 46 b/s
Count of elements              : 733
Stream size                    : 38.2 KiB (0%)
Language                       : Russian
Default                        : No
Forced                         : No

Text #3
ID                             : 19
Format                         : UTF-8
Codec ID                       : S_TEXT/UTF8
Codec ID/Info                  : UTF-8 Plain Text
Duration                       : 1 h 54 min
Bit rate                       : 27 b/s
Count of elements              : 735
Stream size                    : 22.8 KiB (0%)
Language                       : English
Default                        : No
Forced                         : No

Menu
00:00:00.000                   : en:Main Titles/Operatic Overture
00:05:00.000                   : en:The Last Time
00:10:00.000                   : en:Future Exile
00:15:00.000                   : en:Fish Out of Water
00:20:00.000                   : en:Sheild Tampering
00:25:00.000                   : en:On the Run
00:30:00.000                   : en:Kiss of Death
00:35:00.000                   : en:All the World's a Stage
00:40:00.000                   : en:Clothes Make the Man
00:45:00.000                   : en:Once Before I Die
00:50:00.000                   : en:Speed Kills
00:55:00.000                   : en:Launching the Sheild
01:00:00.000                   : en:My Kind of Town
01:05:00.000                   : en:On Holy Ground
01:10:00.000                   : en:Immortal Embattled
01:15:00.000                   : en:Greetings, Highlander
01:20:00.000                   : en:Business As Usual
01:25:00.000                   : en:Security Breach
01:30:00.000                   : en:Full Measure of Life
01:35:00.000                   : en:Above the Sheild
01:40:00.000                   : en:Executive Decision Making
01:45:00.000                   : en:There Can Be Only One
01:50:00.000                   : en:Raising the Roof
01:55:00.000                   : en:End Credits




Скриншоты:
[+] Всего файлов в раздаче - 1:
1986.Highlander.renta23.mkv12.77 GB

Отзывы
Зарегистрируйтесь чтобы добавить комментарий.
Обратная связь
Copyleft ©