↑↓Torrent.by
Поиск
Логин: Регистрация
Пароль: Восстановить пароль
Загрузка...

Лабиринт / Maze (2017) HDRip 720p | GreenРай Studio

Скачать labirint-maze-2017-hdrip-720p-greenray-studio.torrent
U Магнитная ссылка Размер: 2.95 GB Раздают: 122 Качают: 78 Добавлен: 2018-02-11 10:21:52
Лабиринт / Maze (2017) HDRip 720p | GreenРай Studio

Название: Лабиринт
Оригинальное название: Maze
Год выпуска: 2017
Жанр:  Триллер, драма, криминал, детектив, приключения, история
Режиссер: Стефен Бурк
В ролях: Том Вон-Лолор, Бэрри Уорд, Мартин МакКанн, Айлин Уолш, Аарон Монахэн, Ниам МакГрэйди, Элва Трилль, Тим Крид, Силлиан О’Салливан

О фильме:
Фильм рассказывает о знаменитом побеге из тюрьмы её величества Мэйз. В 1983 году из тюрьмы максимальной безопасности сбежали 38 заключенных из Временной Ирландской республиканской армии. Побег стал крупнейшим по количеству сбежавших в британской истории со времен Второй Мировой войны.

 
Страна: Великобритания, Германия, Швеция, Ирландия
Студия: Cyprus Avenue Films
Продолжительность: 01:29:39
Перевод: Любительский многоголосый [GreenРай Studio]

Файл
Кодек: x264
Качество: HDRip 720p
Видео: 4000 Кбит/с, 1280x536, 24.000 fps
Звук: Русский (AC3, 2 ch, 640 Кбит/с)

Внимание,имеется  видео и аудио реклама от спонсора показа

Над релизом работали:
Состав дикторов Анастасия Гайдаржи, Илья Кочетков, Андрей Данилко
Руководитель проекта и координатор: Евгений Овчаренко
Организатор и координатор: Никита Марков
Пиар менеджер студии: Гриша Чернозатонский
Техническая поддержка: Александр Методий

Релиз:


[+] MediaInfo
General
Unique ID                   : 188036113702402318794246587922030765921 (0x8D76702DE98BE92287BCA9219373A761)
Complete name               : E:GreenRayMaze.2017.P.BDRip.720p.mkv
Format                      : Matroska
Format version              : Version 4 / Version 2
File size                   : 2.95 GiB
Duration                    : 1 h 33 min
Overall bit rate mode       : Constant
Overall bit rate            : 4 544 kb/s
Encoded date                : UTC 2018-02-10 09:33:12
Writing application         : mkvmerge v8.3.0 ('Over the Horizon') 64bit
Writing library             : libebml v1.3.1 + libmatroska v1.4.2

Video
ID                          : 1
Format                      : AVC
Format/Info                 : Advanced Video Codec
Format profile              : Main@L3.1
Format settings             : CABAC / 3 Ref Frames
Format settings, CABAC      : Yes
Format settings, ReFrames   : 3 frames
Format settings, GOP        : M=4, N=15
Codec ID                    : V_MPEG4/ISO/AVC
Duration                    : 1 h 33 min
Bit rate mode               : Constant
Bit rate                    : 4 000 kb/s
Width                       : 1 280 pixels
Height                      : 536 pixels
Display aspect ratio        : 2.40:1
Frame rate mode             : Constant
Frame rate                  : 24.000 FPS
Standard                    : NTSC
Color space                 : YUV
Chroma subsampling          : 4:2:0
Bit depth                   : 8 bits
Scan type                   : Progressive
Bits/(Pixel*Frame)          : 0.243
Stream size                 : 2.54 GiB (86%)
Language                    : English
Default                     : Yes
Forced                      : No
Color range                 : Limited

Audio
ID                          : 2
Format                      : AC-3
Format/Info                 : Audio Coding 3
Codec ID                    : A_AC3
Duration                    : 1 h 33 min
Bit rate mode               : Constant
Bit rate                    : 640 kb/s
Channel(s)                  : 2 channels
Channel positions           : Front: L R
Sampling rate               : 48.0 kHz
Frame rate                  : 31.250 FPS (1536 SPF)
Bit depth                   : 16 bits
Compression mode            : Lossy
Stream size                 : 426 MiB (14%)
Service kind                : Complete Main
Default                     : Yes
Forced                      : No




Скриншоты:
[+] Всего файлов в раздаче - 1:
Maze.2017.P.BDRip.720p.mkv2.95 GB

Текущая раздача:
ДатаКомментарии    РазмерПиры
2018-02-11 U Лабиринт / Maze (2017) HDRip 720p | GreenРай Studio 2.95 GB ↑ 122 ↓ 78

Показать еще раздачи по запросу лабиринт:
2018-02-11 U Лабиринт / Maze (2017) HDRip | GreenРай Studio 1.44 GB ↑ 564 ↓ 124
2017-12-13 U Лабиринт страстей / Laberinto de pasiones (1982) DVDRip | P 1.45 GB ↑ 64 ↓ 17
2017-10-27 U Лабиринт 3: Царство кошмара / Maze 3: Nightmare Realm CE (2017) PC 408.69 MB ↑ 87 ↓ 8
2017-09-13 U Дэйв сделал лабиринт / Dave Made a Maze (2017) WEB-DLRip 720p | L 2.43 GB ↑ 97 ↓ 28
2017-08-20 U Дэйв сделал лабиринт / Dave Made a Maze (2017) WEB-DL 1080p | L1 1К3.37 GB ↑ 180 ↓ 59
2017-08-20 U Дэйв сделал лабиринт / Dave Made a Maze (2017) WEB-DLRip от ExKinoRay | L1 1К1.37 GB ↑ 163 ↓ 131
2017-06-05 U Следствие вели... с Леонидом Каневским. Лабиринт [04.06] (2017) HDTVRip от GeneralFim 525.36 MB ↑ 112 ↓ 39

Отзывы
Зарегистрируйтесь чтобы добавить комментарий.
Обратная связь
Copyleft ©