↑↓Torrent.by
Поиск
Логин: Регистрация
Пароль: Восстановить пароль
Загрузка...

Ритуал / The Ritual (2017) WEBRip 1080p | Jimmy J

Скачать ritual-the-2017-webrip-1080p-jimmy-j.torrent
U Магнитная ссылка Размер: 3.32 GB Раздают: 165 Качают: 96 Добавлен: 2018-02-11 17:54:06
Ритуал / The Ritual (2017) WEBRip 1080p | Jimmy J

Название: Ритуал
Оригинальное название: The Ritual
Год выхода: 2017
Жанр:  Ужасы
Режиссер: Дэвид Брукнер
В ролях: Рейф Сполл, Роб Джеймс-Колльер, Сэм Тротон, Аршер Али, Пол Рейд, Керри МакЛин, Мария Эрвольтер

О фильме:
Четверо бывших одноклассников отправляются в поход по горам и лесам, чтобы почтить память погибшего друга. Сначала они придерживаются общепринятого маршрута, но затем решают немного прогуляться в сторону от натоптанной тропы и находят в лесу странный дом...

 
Страна: USA
Студия: NETFLIX
Продолжительность: 01:34:06
Перевод: Любительский (двухголосый закадровый) Jimmy J.
Роли озвучивали: Дмитрий Чепусов и Анастасия Флигина
Монтаж: Кирилл Жирнов

Файл
Кодек: AVC
Качество: WEBRip 1080p
Видео: ~ 4700 Кбит/с, 1920x958, 23.976 fps
Звук: Русский / AAC / 2.0 / 320kbs / 48 kHz

Присутствует реклама!


[+] MI
General
Unique ID                   : 57940345995905001741336350091946243302 (0x2B96E79CA88B104C20BFAD29EAB434E6)
Complete name               : The.Ritual.2018.1080p.WEB-DL.JimmyJ.mkv
Format                      : Matroska
Format version              : Version 4 / Version 2
File size                   : 3.32 GiB
Duration                    : 1 h 34 min
Overall bit rate            : 5 009 kb/s
Encoded date                : UTC 2018-02-11 11:38:19
Writing application         : mkvmerge v20.0.0 ('I Am The Sun') 64-bit
Writing library             : libebml v1.3.5 + libmatroska v1.4.8

Video
ID                          : 1
Format                      : AVC
Format/Info                 : Advanced Video Codec
Format profile              : Main@L4.1
Format settings             : CABAC / 4 Ref Frames
Format settings, CABAC      : Yes
Format settings, ReFrames   : 4 frames
Codec ID                    : V_MPEG4/ISO/AVC
Duration                    : 1 h 34 min
Bit rate                    : 4 690 kb/s
Width                       : 1 920 pixels
Height                      : 958 pixels
Display aspect ratio        : 2.004
Frame rate mode             : Constant
Frame rate                  : 23.976 (24000/1001) FPS
Standard                    : NTSC
Color space                 : YUV
Chroma subsampling          : 4:2:0
Bit depth                   : 8 bits
Scan type                   : Progressive
Bits/(Pixel*Frame)          : 0.106
Stream size                 : 3.11 GiB (94%)
Language                    : English
Default                     : No
Forced                      : No
Color range                 : Limited
Color primaries             : BT.709
Transfer characteristics    : BT.709
Matrix coefficients         : BT.709

Audio
ID                          : 2
Format                      : AAC
Format/Info                 : Advanced Audio Codec
Format profile              : LC
Codec ID                    : A_AAC-2
Duration                    : 1 h 34 min
Bit rate                    : 317 kb/s
Channel(s)                  : 2 channels
Channel positions           : Front: L R
Sampling rate               : 48.0 kHz
Frame rate                  : 46.875 FPS (1024 SPF)
Compression mode            : Lossy
Stream size                 : 215 MiB (6%)
Title                       : DVO JimmyJ
Language                    : Russian
Default                     : No
Forced                      : No



Скриншоты:
[+] Всего файлов в раздаче - 1:
The.Ritual.2018.1080p.WEB-DL.JimmyJ.mkv3.32 GB

Текущая раздача:
ДатаКомментарии    РазмерПиры
2018-02-11 U Ритуал / The Ritual (2017) WEBRip 1080p | Jimmy J 3.32 GB ↑ 165 ↓ 96

Показать еще раздачи по запросу ритуал:
2018-06-25 U Ритуал / The Ritual (2017) WEB-DLRip-AVC от ivanes20031987 | Jaskier 1.46 GB ↑ 200 ↓ 22
2018-06-24 U Ритуал / The Ritual (2017) WEBDLRip | Jaskier 1.18 GB ↑ 53 ↓ 40
2018-06-24 U Ритуал / The Ritual (2017) WEB-DL 1080p | Jaskier 3.55 GB ↑ 80 ↓ 74
2018-04-30 U За гранью жестокости 11: Разрушенный ритуал / Grim Facade 11: Broken Sacrament. CE (2018) PC 794.45 MB ↑ 140 ↓ 11
2018-03-20 U Ритуал / The Ritual (2017) WEBRip от Scarabey | HDrezka Studio 1К1.35 GB ↑ 54 ↓ 27
2018-02-19 U Ритуал / The Ritual (2017) WEB-DLRip | BaibaKo 1.37 GB ↑ 119 ↓ 67
2018-02-13 U Ритуал / The Ritual (2017) WEBRip 1080p | HDrezka Studio 3.25 GB ↑ 73 ↓ 65

Отзывы
Зарегистрируйтесь чтобы добавить комментарий.
Обратная связь
Copyleft ©