↑↓Torrent.by
Поиск
Логин: Регистрация
Пароль: Восстановить пароль
Загрузка...

Война волков 2 / Wolf Warrior 2 / Zhan lang 2 (2017) BDRip 720p | L

Скачать voyna-volkov-2-wolf-warrior-zhan-lang-2017-bdrip-720p-l.torrent
U Магнитная ссылка Размер: 6.62 GB Раздают: 147 Качают: 127 Добавлен: 2018-02-11 17:54:10
Война волков 2 / Wolf Warrior 2 / Zhan lang 2 (2017) BDRip 720p | L

Название: Война волков 2
Оригинальное название: Wolf Warrior 2 / Zhan lang 2
Год выхода: 2017
Жанр: драма, боевик, военный
Режиссер: Джеки Ву
В ролях: Джеки Ву, Фрэнк Грилло, Селина Джейд, У Ган, Чжан Хань, Юй Цзянь, Юй Нань, Чуньюй Шаньшань, Дин Хайфэн, Олег Прудиус

О фильме:
Один из лучших спецназовцев Китая Лэн Фэн был лишен звания и сел в тюрьму на три года за поведение, по мнению руководства, недостойное китайского офицера. Пока наш герой сидел, его невесту убили где-то в Африке, а несостоявшемуся жениху досталась только необычная пуля, извлеченная из тела любимой. Выйдя, Лэн отправляется в Африку и заводит дружбу с пухлым местным пацаном, когда в стране вдруг начинается очередная революция.

Страна: Китай
Студия: Beijing Century Media Culture + еще 12
Продолжительность: 02:03:10
Перевод: любительский многоголосный, закадровый [GreenРай Studio]

Файл
Кодек: H.264
Качество: BDRip 720p (CHD)
Видео: AVC, 1280x544 (2.35:1), 24 fps ~ 6000 Kbps
Звук:
AC3, 48 KHz, 2 ch ~ 192 Kb/s (русский)
DTS, 48 KHz, 6 ch ~ 1510 Kb/s (английский)
Субтитры: английские

Семпл
[+] MI:

Общее
Уникальный идентификатор : 242068925089719608553291287705980187852 (0xB61CC775F4573C4A8C18946A7C6734CC)
Полное имя : Q:TorFWolf.Warriors.2.2017.720p-CHD.mkv
Формат : Matroska
Версия формата : Version 2
Размер файла : 6,62 Гбайт
Продолжительность : 2 ч. 3 м.
Общий поток : 7693 Кбит/сек
Дата кодирования : UTC 2018-02-11 06:09:55
Программа кодирования : mkvmerge v5.4.0 ('Piper') built on Mar 10 2012 13:34:39
Библиотека кодирования : libebml v1.2.3 + libmatroska v1.3.0

Видео
Идентификатор : 1
Формат : AVC
Формат/Информация : Advanced Video Codec
Профиль формата : High@L4.1
Параметр CABAC формата : Да
Параметр ReFrames формата : 9 кадров
Идентификатор кодека : V_MPEG4/ISO/AVC
Продолжительность : 2 ч. 3 м.
Битрейт : 6000 Кбит/сек
Ширина : 1280 пикселей
Высота : 544 пикселя
Соотношение сторон : 2,35:1
Частота кадров : 24,000 кадра/сек
Цветовое пространство : YUV
Субдискретизация насыщенности : 4:2:0
Битовая глубина : 8 бит
Тип развёртки : Прогрессивная
Бит/(Пиксели*Кадры) : 0.359
Размер потока : 5,02 Гбайт (76%)
Библиотека кодирования : x264 core 149 r2771+45 509cceb 7mod [8-bit@all X86_64]
Настройки программы : cabac=1 / ref=9 / deblock=1:-1:-1 / analyse=0x3:0x133 / me=umh / subme=11 / psy=1 / fade_compensate=0.00 / psy_rd=0.90:0.10 / mixed_ref=1 / me_range=32 / chroma_me=1 / trellis=2 / 8x8dct=1 / cqm=0 / deadzone=21,11 / fast_pskip=0 / chroma_qp_offset=-4 / threads=12 / lookahead_threads=2 / sliced_threads=0 / nr=0 / decimate=1 / interlaced=0 / bluray_compat=0 / constrained_intra=0 / fgo=0 / bframes=9 / b_pyramid=2 / b_adapt=2 / b_bias=0 / direct=3 / weightb=1 / open_gop=0 / weightp=2 / keyint=250 / keyint_min=24 / scenecut=40 / intra_refresh=0 / rc_lookahead=30 / rc=2pass / mbtree=0 / bitrate=6000 / ratetol=2.0 / qcomp=0.70 / qpmin=0:0:0 / qpmax=69:69:69 / qpstep=4 / cplxblur=20.0 / qblur=0.5 / vbv_maxrate=24000 / vbv_bufsize=24000 / nal_hrd=none / filler=0 / ip_ratio=1.40 / pb_ratio=1.30 / aq=3:1.00 / aq-sensitivity=10.00 / aq-factor=1.00:1.00:1.00 / aq2=0 / aq3=2:[0.50:0.50]:[0.50:0.50]:[0.50:0.50]:[0.50:0.50] / aq3-sensitivity=10.00 / aq3-factor=[1.00:1.00]:[1.00:1.00]:[1.00:1.00] / aq3-boundary=192:64:24
Язык : Chinese
Default : Да
Forced : Нет
DURATION : 02:03:10.959000000
NUMBER_OF_FRAMES : 177383
NUMBER_OF_BYTES : 5533814748
_STATISTICS_WRITING_APP : mkvmerge v10.0.0 ('To Drown In You') 64bit
_STATISTICS_WRITING_DATE_UTC : 2017-12-04 08:12:14
_STATISTICS_TAGS : BPS DURATION NUMBER_OF_FRAMES NUMBER_OF_BYTES

Аудио #1
Идентификатор : 2
Формат : AC-3
Формат/Информация : Audio Coding 3
Расширение режима : CM (complete main)
Идентификатор кодека : A_AC3
Продолжительность : 2 ч. 3 м.
Вид битрейта : Постоянный
Битрейт : 192 Кбит/сек
Каналы : 2 канала
Расположение каналов : Front: L R
Частота : 48,0 КГц
Битовая глубина : 16 бит
Метод сжатия : С потерями
Задержка видео : 720 мс.
Размер потока : 169 Мбайт (2%)
Заголовок : Creampie Studio
Язык : Russian
Default : Да
Forced : Нет

Аудио #2
Идентификатор : 3
Формат : DTS
Формат/Информация : Digital Theater Systems
Идентификатор кодека : A_DTS
Продолжительность : 2 ч. 3 м.
Вид битрейта : Постоянный
Битрейт : 1510 Кбит/сек
Каналы : 6 каналов
Расположение каналов : Front: L C R, Side: L R, LFE
Частота : 48,0 КГц
Битовая глубина : 24 бит
Метод сжатия : С потерями
Размер потока : 1,30 Гбайт (20%)
Язык : English
Default : Нет
Forced : Нет

Текст #1
Идентификатор : 4
Формат : UTF-8
Идентификатор кодека : S_TEXT/UTF8
Идентификатор кодека/Информация : UTF-8 Plain Text
Заголовок : English
Язык : English
Default : Нет
Forced : Нет

Текст #2
Идентификатор : 5
Формат : UTF-8
Идентификатор кодека : S_TEXT/UTF8
Идентификатор кодека/Информация : UTF-8 Plain Text
Заголовок : English forced
Язык : English
Default : Нет
Forced : Нет

Меню
00:00:00.000 : en:00:00:00.000
00:11:02.083 : en:00:11:02.083
00:19:17.792 : en:00:19:17.792
00:27:45.042 : en:00:27:45.042
00:35:09.583 : en:00:35:09.583
00:47:07.708 : en:00:47:07.708
00:55:56.417 : en:00:55:56.417
01:12:03.625 : en:01:12:03.625
01:18:15.500 : en:01:18:15.500
01:28:42.917 : en:01:28:42.917
01:34:17.375 : en:01:34:17.375
01:41:50.917 : en:01:41:50.917
01:56:36.500 : en:01:56:36.500



Скриншоты:
[+] Всего файлов в раздаче - 1:
Wolf.Warriors.2.2017.720p-CHD.mkv6.62 GB

Текущая раздача:
ДатаКомментарии    РазмерПиры
2018-02-11 U Война волков 2 / Wolf Warrior 2 / Zhan lang 2 (2017) BDRip 720p | L 6.62 GB ↑ 147 ↓ 127

Показать еще раздачи по запросу война:
2018-09-23 U Мстители: Война бесконечности / Avengers: Infinity War (2018) BDRip 720p от NNNB | 60 fps | Лицензия 9.55 GB ↑ 58 ↓ 28
2018-09-21 U Мстители: Война бесконечности / Avengers: Infinity War (2018) HDRip от Scarabey | Лицензия 1.46 GB ↑ 1262 ↓ 32
2018-09-20 U Мстители: Война бесконечности / Avengers: Infinity War (2018) HDRip от Scarabey | Лицензия 2.19 GB ↑ 58 ↓ 22
2018-09-19 U Мстители: Война бесконечности / Avengers: Infinity War (2018) BDRip от MegaPeer | Лицензия 2.18 GB ↑ 100 ↓ 6
2018-09-19 U Мстители: Война бесконечности / Avengers: Infinity War (2018) BDRip от ExKinoRay | Лицензия 1.46 GB ↑ 37 ↓ 8
2018-09-19 U Мстители: Война бесконечности / Avengers: Infinity War (2018) BDRip 1080p от Ash61 | 3D-Video | halfOU | Лицензия 12.46 GB ↑ 44 ↓ 24
2018-09-19 U Мстители: Война бесконечности / Avengers: Infinity War (2018) BDRip 720p от k.e.n & MegaPeer | D | Лицензия 5.76 GB ↑ 67 ↓ 25

Отзывы
Зарегистрируйтесь чтобы добавить комментарий.
Обратная связь
Copyleft ©