↑↓Torrent.by
Поиск
Логин: Регистрация
Пароль: Восстановить пароль
Загрузка...

Несчастный случай / Accident Man (2018) BDRip 1080p от New-Team | Лицензия

Скачать neschastnyy-sluchay-accident-man-2018-bdrip-1080p-ot-new-team-licenziya.torrent
U Магнитная ссылка Размер: 10.14 GB Раздают: 73 Качают: 23 Добавлен: 2018-02-12 08:04:39
Несчастный случай / Accident Man (2018) BDRip 1080p от New-Team | Лицензия

Несчастный случай
Accident Man

Страна: Великобритания
Жанр:  боевик, триллер, криминал

Год выпуска: 2018
Продолжительность: 01:45:29

Перевод: Профессиональный (многоголосый, закадровый) [Blu-ray EUR]
Субтитры: русские (форсированные, полные), английские (полные, SDH)
Оригинальная аудиодорожка: английский

Режиссер: Джесси Джонсон / Jesse Johnson

В ролях: Скотт Эдкинс, Рэй Стивенсон, Эшли Грин, Дэвид Пэймер, Майкл Джей Уайт, Рэй Парк, Эми Джонстон, Перри Бенсон, Ник Моран, Росс О’Хеннесси, Тим Ман, Leon Finnan

Описание:
Майк Фэллон известен тем, что превращает все свои убийства в несчастный случай. Но его отношение к делу полностью меняется, когда умирает его бывшая девушка.

Релиз:

Автор рипа: stalkerok

Семпл

Качество видео: BDRip 1080p [Accident Man (2018) Blu-ray Disc [EUR] -PCH]
Формат видео: MKV
Видео кодек: AVC
Аудио кодек: AC3, DTS
Видео: 11611 Кбит/сек, 1920*804 (2.40:1), 23,976 кадр/сек, AVC
Аудио #1: русский, 640 Кбит/сек, 48 КГц, 5.1, AC3
Аудио #2: английский, 1509 Кбит/сек, 48 КГц, 24 бит, 5.1, DTS
Навигация по главам: есть


[+] x264/MediaInfo


---[Information] [10.02.2018 18:59:15] x264 [info]: frame I:1235  Avg QP:14.12  size:195945
---[Information] [10.02.2018 18:59:15] x264 [info]: frame P:32580 Avg QP:15.69  size:109240
---[Information] [10.02.2018 18:59:15] x264 [info]: frame B:117937 Avg QP:18.20  size: 45662

Общее
Уникальный идентификатор                 : 193598825835496875310601667320578620134 (0x91A5C70FF91939A3A30B5D7F0C04BAE6)
Полное имя                               : M:$newAccident Man (2018)Accident.Man.2018.BDRip.1080p.RUS.ENG.stalkerok.new-team.mkv
Формат                                   : Matroska
Версия формата                           : Version 4 / Version 2
Размер файла                             : 10,1 Гбайт
Продолжительность                        : 1 ч. 45 м.
Общий поток                              : 13,8 Мбит/сек
Название фильма                          : Accident Man (2018) (Rip by stalkerok)
Дата кодирования                         : UTC 2018-02-10 17:59:46
Программа кодирования                    : mkvmerge v8.6.1 ('Flying') 64bit
Библиотека кодирования                   : libebml v1.3.3 + libmatroska v1.4.4

Видео
Идентификатор                            : 6
Формат                                   : AVC
Формат/Информация                        : Advanced Video Codec
Профиль формата                          : High@L4.1
Параметр CABAC формата                   : Да
Параметр ReFrames формата                : 4 кадра
Идентификатор кодека                     : V_MPEG4/ISO/AVC
Продолжительность                        : 1 ч. 45 м.
Битрейт                                  : 11,6 Мбит/сек
Ширина                                   : 1920 пикселей
Высота                                   : 804 пикселя
Соотношение сторон                       : 2,40:1
Режим частоты кадров                     : Постоянный
Частота кадров                           : 23,976 (24000/1001) кадра/сек
Цветовое пространство                    : YUV
Субдискретизация насыщенности            : 4:2:0
Битовая глубина                          : 8 бит
Тип развёртки                            : Прогрессивная
Бит/(Пиксели*Кадры)                      : 0.314
Размер потока                            : 8,56 Гбайт (84%)
Заголовок                                : Accident Man (2018) (Rip by stalkerok)
Библиотека кодирования                   : x264 core 152 r2851kMod ba24899
Настройки программы                      : cabac=1 / ref=4 / deblock=1:-3:-3 / analyse=0x3:0x133 / me=umh / subme=11 / psy=1 / fade_compensate=0.00 / psy_rd=1.00:0.00 / mixed_ref=1 / me_range=32 / chroma_me=1 / trellis=2 / 8x8dct=1 / cqm=0 / deadzone=21,11 / fast_pskip=0 / chroma_qp_offset=-2 / threads=12 / lookahead_threads=2 / sliced_threads=0 / nr=0 / decimate=1 / interlaced=0 / bluray_compat=0 / constrained_intra=0 / bframes=8 / b_pyramid=2 / b_adapt=2 / b_bias=0 / direct=3 / weightb=1 / open_gop=0 / weightp=2 / keyint=240 / keyint_min=23 / scenecut=40 / intra_refresh=0 / rc_lookahead=60 / rc=crf / mbtree=0 / crf=17.5000 / qcomp=0.65 / qpmin=0 / qpmax=69 / qpstep=4 / vbv_maxrate=50000 / vbv_bufsize=62500 / crf_max=0.0 / nal_hrd=none / filler=0 / ip_ratio=1.40 / pb_ratio=1.30 / aq=3:0.80
Default                                  : Да
Forced                                   : Нет

Аудио #1
Идентификатор                            : 5
Формат                                   : AC-3
Формат/Информация                        : Audio Coding 3
Расширение режима                        : CM (complete main)
Параметр Endianness формата              : Big
Идентификатор кодека                     : A_AC3
Продолжительность                        : 1 ч. 45 м.
Вид битрейта                             : Постоянный
Битрейт                                  : 640 Кбит/сек
Каналы                                   : 6 каналов
Расположение каналов                     : Front: L C R, Side: L R, LFE
Частота                                  : 48,0 КГц
Частота кадров                           : 31,250 кадров/сек (1536 spf)
Метод сжатия                             : С потерями
Размер потока                            : 483 Мбайт (5%)
Язык                                     : Russian
Default                                  : Да
Forced                                   : Нет

Аудио #2
Идентификатор                            : 7
Формат                                   : DTS
Формат/Информация                        : Digital Theater Systems
Режим                                    : 16
Параметр Endianness формата              : Big
Идентификатор кодека                     : A_DTS
Продолжительность                        : 1 ч. 45 м.
Вид битрейта                             : Постоянный
Битрейт                                  : 1509 Кбит/сек
Каналы                                   : 6 каналов
Расположение каналов                     : Front: L C R, Side: L R, LFE
Частота                                  : 48,0 КГц
Частота кадров                           : 93,750 кадра/сек (512 spf)
Битовая глубина                          : 24 бит
Метод сжатия                             : С потерями
Размер потока                            : 1,11 Гбайт (11%)
Язык                                     : English
Default                                  : Нет
Forced                                   : Нет

Текст #1
Идентификатор                            : 1
Формат                                   : UTF-8
Идентификатор кодека                     : S_TEXT/UTF8
Идентификатор кодека/Информация          : UTF-8 Plain Text
Продолжительность                        : 1 ч. 22 м.
Битрейт                                  : 0 бит/сек
Count of elements                        : 10
Размер потока                            : 400 байт (0%)
Заголовок                                : Forced
Язык                                     : Russian
Default                                  : Да
Forced                                   : Нет

Текст #2
Идентификатор                            : 2
Формат                                   : UTF-8
Идентификатор кодека                     : S_TEXT/UTF8
Идентификатор кодека/Информация          : UTF-8 Plain Text
Продолжительность                        : 1 ч. 40 м.
Битрейт                                  : 90 бит/сек
Count of elements                        : 1383
Размер потока                            : 66,5 Кбайт (0%)
Язык                                     : Russian
Default                                  : Нет
Forced                                   : Нет

Текст #3
Идентификатор                            : 3
Формат                                   : UTF-8
Идентификатор кодека                     : S_TEXT/UTF8
Идентификатор кодека/Информация          : UTF-8 Plain Text
Продолжительность                        : 1 ч. 40 м.
Битрейт                                  : 72 бит/сек
Count of elements                        : 1371
Размер потока                            : 53,5 Кбайт (0%)
Язык                                     : English
Default                                  : Нет
Forced                                   : Нет

Текст #4
Идентификатор                            : 4
Формат                                   : UTF-8
Идентификатор кодека                     : S_TEXT/UTF8
Идентификатор кодека/Информация          : UTF-8 Plain Text
Продолжительность                        : 1 ч. 43 м.
Битрейт                                  : 76 бит/сек
Count of elements                        : 1527
Размер потока                            : 57,5 Кбайт (0%)
Заголовок                                : SDH
Язык                                     : English
Default                                  : Нет
Forced                                   : Нет

Меню
00:00:00.000                             : en:Chapter 1
00:06:02.153                             : en:Chapter 2
00:15:28.844                             : en:Chapter 3
00:17:56.366                             : en:Chapter 4
00:21:30.455                             : en:Chapter 5
00:28:05.558                             : en:Chapter 6
00:33:13.157                             : en:Chapter 7
00:42:36.554                             : en:Chapter 8
00:46:16.273                             : en:Chapter 9
00:53:10.729                             : en:Chapter 10
00:58:43.144                             : en:Chapter 11
01:05:58.871                             : en:Chapter 12
01:11:50.306                             : en:Chapter 13
01:15:08.378                             : en:Chapter 14
01:26:46.201                             : en:Chapter 15
01:33:46.203                             : en:Chapter 16




Скриншоты:
[+] Всего файлов в раздаче - 1:
Accident.Man.2018.BDRip.1080p.RUS.ENG.stalkerok.new-team.mkv10.14 GB

Текущая раздача:
ДатаКомментарии    РазмерПиры
2018-02-12 U Несчастный случай / Accident Man (2018) BDRip 1080p от New-Team | Лицензия 10.14 GB ↑ 73 ↓ 23

Показать еще раздачи по запросу несчастный:
2018-02-11 U Несчастный случай / Accident Man (2018) BDRip 720p от New-Team | Лицензия 4.02 GB ↑ 140 ↓ 113
2018-02-11 U Несчастный случай / Accident Man (2018) BDRip от ExKinoRay | Лицензия 1.46 GB ↑ 56 ↓ 18
2018-02-10 U Несчастный случай / Accident Man (2018) HDRip от Scarabey | Лицензия 1.45 GB ↑ 58 ↓ 15
2018-02-09 U Несчастный случай / Accident Man (2018) BDRip-AVC от New-Team | Лицензия 746.05 MB ↑ 155 ↓ 21
2018-02-09 U Несчастный случай / Accident Man (2018) BDRip-AVC от New-Team | Лицензия 2.18 GB ↑ 100 ↓ 38
2018-02-08 U Несчастный случай / Accident Man (2018) BDRip-AVC от New-Team | Лицензия 1.46 GB ↑ 110 ↓ 70
2018-02-08 U Несчастный случай / Accident Man (2018) BDRip от MegaPeer | Лицензия 746.15 MB ↑ 117 ↓ 65

Отзывы
Зарегистрируйтесь чтобы добавить комментарий.
Обратная связь
Copyleft ©