↑↓Torrent.by
Поиск
Логин: Регистрация
Пароль: Восстановить пароль
Загрузка...

Бегущий по лезвию 2049 / Blade Runner 2049 (2017) BDRip 720p от NNNB | 60 fps | US-Transfer | Лицензия

Скачать beguschiy-po-lezviyu-2049-blade-runner-2017-bdrip-720p-ot-nnnb-60-fps-us-transfer-licenziya.torrent
U Магнитная ссылка Размер: 5.25 GB Раздают: 62 Качают: 21 Добавлен: 2018-02-12 08:05:38
Бегущий по лезвию 2049 / Blade Runner 2049 (2017) BDRip 720p от NNNB | 60 fps | US-Transfer | Лицензия

Информация о фильме
Русское название: Бегущий по лезвию 2049
Оригинальное название: Blade Runner 2049
Год выхода: 2017
Жанр:  фантастика, триллер, драма, детектив
Режиссер: Дени Вильнёв
Выпущено:  США, Великобритания, Венгрия, Канада
Продолжительность: 02:43:47
Перевод: Дублированный
В ролях: Райан Гослинг, Харрисон Форд, Ана де Армас, Сильвия Хукс, Робин Райт, Маккензи Дэвис, Карла Юри, Ленни Джеймс, Дэйв Батиста, Джаред Лето

Описание:
В недалеком будущем мир населен людьми и репликантами, созданными выполнять самую тяжелую работу. Работа офицера полиции Кей — держать репликантов под контролем в условиях нарастающего напряжения… Пока он случайно не становится обладателем секретной информации, которая ставит под угрозу существование всего человечества. Желая найти ключ к разгадке, Кей решает разыскать Рика Декарда, бывшего офицера специального подразделения полиции Лос-Анджелеса, который бесследно исчез много лет назад.

Файл
Качество: BDRip 720p (исходник Blu-ray Disc Remux)
Контейнер: MKV (расширение файла)
Видео: 1280x534, 3213 Кбит/сек, 60.000 кадр/сек, AVC, x264, High@L4.1, 2.40:1, 0.078 Бит/[Пиксели*Кадры]
Аудио 1: AC-3, 640 Кбит/сек, 6 канала(ов), 48,0 КГц - Дублированный / Русский
Аудио 2: AC-3, 640 Кбит/сек, 6 канала(ов), 48,0 КГц - Оригинал / Английский
Субтитры: Русские | Полные, Английские | Полные
Форсированные субтитры: Русские
Чаптеры (Главы): Есть



[+] MediaInfo

Format                      : Matroska
Format version              : Version 2
File size                   : 5.25 GiB
Duration                    : 2 h 43 min
Overall bit rate            : 4 585 kb/s
Movie name                  : Blade Runner 2049.(2017).BDRip.720p.[envy].[60fps]
Encoded date                : UTC 2018-02-11 10:52:51
Writing application         : mkvmerge v5.8.0 ('No Sleep / Pillow') built on Sep  2 2012 15:37:04
Writing library             : libebml v1.2.3 + libmatroska v1.3.0

Video
ID                          : 1
Format                      : AVC
Format/Info                 : Advanced Video Codec
Format profile              : High@L4.1
Format settings             : CABAC / 9 Ref Frames
Format settings, CABAC      : Yes
Format settings, ReFrames   : 9 frames
Codec ID                    : V_MPEG4/ISO/AVC
Duration                    : 2 h 43 min
Bit rate                    : 3 213 kb/s
Width                       : 1 280 pixels
Height                      : 534 pixels
Display aspect ratio        : 2.40:1
Frame rate mode             : Constant
Frame rate                  : 60.000 FPS
Color space                 : YUV
Chroma subsampling          : 4:2:0
Bit depth                   : 8 bits
Scan type                   : Progressive
Bits/(Pixel*Frame)          : 0.078
Stream size                 : 3.68 GiB (70%)
Title                       : Blade Runner 2049.(2017).BDRip.720p.[envy].[60fps]
Writing library             : x264 core 146 r2538 121396c
Encoding settings           : cabac=1 / ref=9 / deblock=1:0:0 / analyse=0x3:0x113 / me=umh / subme=9 / psy=1 / psy_rd=1.00:0.00 / mixed_ref=1 / me_range=24 / chroma_me=1 / trellis=2 / 8x8dct=1 / cqm=0 / deadzone=21,11 / fast_pskip=0 / chroma_qp_offset=-2 / threads=12 / lookahead_threads=1 / sliced_threads=0 / nr=0 / decimate=1 / interlaced=0 / bluray_compat=0 / constrained_intra=0 / bframes=5 / b_pyramid=2 / b_adapt=2 / b_bias=0 / direct=1 / weightb=1 / open_gop=0 / weightp=2 / keyint=250 / keyint_min=25 / scenecut=40 / intra_refresh=0 / rc=cqp / mbtree=0 / qp=19 / ip_ratio=1.40 / pb_ratio=1.30 / aq=0
Language                    : English
Default                     : Yes
Forced                      : No

Audio #1
ID                          : 2
Format                      : AC-3
Format/Info                 : Audio Coding 3
Codec ID                    : A_AC3
Duration                    : 2 h 43 min
Bit rate mode               : Constant
Bit rate                    : 640 kb/s
Channel(s)                  : 6 channels
Channel positions           : Front: L C R, Side: L R, LFE
Sampling rate               : 48.0 kHz
Frame rate                  : 31.250 FPS (1536 SPF)
Bit depth                   : 16 bits
Compression mode            : Lossy
Stream size                 : 750 MiB (14%)
Title                       : Dub
Language                    : Russian
Service kind                : Complete Main
Default                     : Yes
Forced                      : No

Audio #2
ID                          : 3
Format                      : AC-3
Format/Info                 : Audio Coding 3
Codec ID                    : A_AC3
Duration                    : 2 h 43 min
Bit rate mode               : Constant
Bit rate                    : 640 kb/s
Channel(s)                  : 6 channels
Channel positions           : Front: L C R, Side: L R, LFE
Sampling rate               : 48.0 kHz
Frame rate                  : 31.250 FPS (1536 SPF)
Bit depth                   : 16 bits
Compression mode            : Lossy
Stream size                 : 750 MiB (14%)
Title                       : Eng
Language                    : English
Service kind                : Complete Main
Default                     : No
Forced                      : No

Text #1
ID                          : 4
Format                      : UTF-8
Codec ID                    : S_TEXT/UTF8
Codec ID/Info               : UTF-8 Plain Text
Title                       : Rus forced
Language                    : Russian
Default                     : Yes
Forced                      : Yes

Text #2
ID                          : 5
Format                      : UTF-8
Codec ID                    : S_TEXT/UTF8
Codec ID/Info               : UTF-8 Plain Text
Title                       : Rus full
Language                    : Russian
Default                     : No
Forced                      : No

Text #3
ID                          : 6
Format                      : UTF-8
Codec ID                    : S_TEXT/UTF8
Codec ID/Info               : UTF-8 Plain Text
Title                       : Eng full
Language                    : English
Default                     : No
Forced                      : No

Menu
00:00:00.000                : :Chapter 01
00:12:50.269                : :Chapter 02
00:23:43.380                : :Chapter 03
00:37:14.857                : :Chapter 04
00:43:04.248                : :Chapter 05
00:49:38.600                : :Chapter 06
00:58:49.609                : :Chapter 07
01:04:24.485                : :Chapter 08
01:16:01.014                : :Chapter 09
01:25:26.412                : :Chapter 10
01:36:29.158                : :Chapter 11
01:51:08.953                : :Chapter 12
02:01:50.761                : :Chapter 13
02:08:54.476                : :Chapter 14
02:16:56.583                : :Chapter 15
02:28:00.913                : :Chapter 16



Скриншоты:
[+] Всего файлов в раздаче - 1:
Blade.Runner.2049.(2017).BDRip.720p.[envy].[60fps].mkv5.25 GB

Текущая раздача:
ДатаКомментарии    РазмерПиры
2018-02-12 U Бегущий по лезвию 2049 / Blade Runner 2049 (2017) BDRip 720p от NNNB | 60 fps | US-Transfer | Лицензия 5.25 GB ↑ 62 ↓ 21

Показать еще раздачи по запросу бегущий:
2018-02-07 U Бегущий по лезвию 2049 / Blade Runner 2049 (2017) BDRip от HQCLUB | Лицензия | D 2.92 GB ↑ 129 ↓ 75
2018-01-29 U Джеймс Дэшнер - Бегущий в лабиринте 3. Лекарство от смерти (2017) MP3 547.11 MB ↑ 76 ↓ 13
2018-01-28 U Бегущий по лезвию 2049 / Blade Runner 2049 (2017) BDRip | A 2.17 GB ↑ 127 ↓ 49
2018-01-17 U Бегущий по лезвию 2049 / Blade Runner 2049 (2017) UHD BDRemux 2160p от ExKinoRay | 4K | HDR | Лицензия 63.32 GB ↑ 60 ↓ 67
2018-01-15 U Бегущий по лезвию / Blade Runner (1982) UHDRip-HEVC 1080p | Final Cut | D 7.58 GB ↑ 31 ↓ 20
2018-01-13 U Бегущий по лезвию 2049 / Blade Runner 2049 (2017) BDRemux 1080p | US Transfer | D, A | Лицензия 32.79 GB ↑ 71 ↓ 109
2018-01-11 U Бегущий по лезвию 2049 / Blade Runner 2049 (2017) BDRip 1080p от HELLYWOOD | Лицензия 11.23 GB ↑ 140 ↓ 116

Отзывы
Зарегистрируйтесь чтобы добавить комментарий.
Обратная связь
Copyleft ©