↑↓Torrent.by
Поиск
Логин: Регистрация
Пароль: Восстановить пароль
Загрузка...

Вечный путь / Ikitie (2017) WEBRip 1080p | L2

Скачать vechnyy-put-ikitie-2017-webrip-1080p-l2.torrent
U Магнитная ссылка Размер: 3.67 GB Раздают: 36 Качают: 26 Добавлен: 2018-02-12 08:11:19
Вечный путь / Ikitie (2017) WEBRip 1080p | L2

Название: Вечный путь
Оригинальное название: Ikitie
Год выпуска: 2017
Жанр:  Драма, история
Выпущено: Финляндия, Эстония, Швеция, Anagram, Film i Väst, MRP Matila Röhr Productions Oy, Taska Film
Режиссер: Анти-Юсси Аннила
В ролях: Сидсе Бабетт Кнудсен, Ирина Бьёрклунд, Вилле Виртанен, Амалия Хольм, Томми Корпела, Пелле Хейккиля, Ника Саволайнен, Лембит Ульфсак, Ханну-Пекка Бьёркман, Йонна Ярнефелт

О фильме: После побега из Финляндии, вызванного столкновением с националистами, рабочий Юсси Кетола оказался на территории СССР. Новый режим поставил его перед сложным выбором: принять участие в строительстве утопического государства, сообщая о шпионах, прибывших в СССР под видом американских рабочих, или отказаться от сотрудничества с советской властью, попытавшись начать новую жизнь под другим именем. С огромным трудом Юсси удается закрепиться на новом месте, но политическая ситуация резко меняется…

Качество: WEBRip (1080p)
Видео: MPEG-4 AVC, 4742 Кбит/с, 1920x1080
Аудио: Русский (MP3, 2 ch, 192 Кбит/с), финский (AC-3, 6 ch, 384 Кбит/с)
Продолжительность: 01:38:46
Перевод: Любительский двухголосый [datynet & Galina Vasyukova]
Субтитры: Русские, норвежские, датские, финские, шведские
[+] MI
General
Unique ID                      : 206279125330477094233079269800909501512 (0x9B2FEA189516CF63BE733F112A647448)
Complete name                  : D:фильмыIkitie.2017.mkv
Format                         : Matroska
Format version                 : Version 4 / Version 2
File size                      : 3.67 GiB
Duration                       : 1 h 38 min
Overall bit rate mode          : Variable
Overall bit rate               : 5 320 kb/s
Encoded date                   : UTC 2018-02-11 15:26:39
Writing application            : mkvmerge v9.6.0 ('Slave To Your Mind') 64bit
Writing library                : libebml v1.3.4 + libmatroska v1.4.5

Video
ID                             : 5
Format                         : AVC
Format/Info                    : Advanced Video Codec
Format profile                 : High@L4.1
Format settings, CABAC         : Yes
Format settings, ReFrames      : 2 frames
Codec ID                       : V_MPEG4/ISO/AVC
Duration                       : 1 h 38 min
Bit rate mode                  : Variable
Bit rate                       : 4 742 kb/s
Maximum bit rate               : 7 200 kb/s
Width                          : 1 920 pixels
Height                         : 1 080 pixels
Display aspect ratio           : 16:9
Frame rate mode                : Constant
Frame rate                     : 25.000 FPS
Color space                    : YUV
Chroma subsampling             : 4:2:0
Bit depth                      : 8 bits
Scan type                      : Progressive
Bits/(Pixel*Frame)             : 0.091
Stream size                    : 3.27 GiB (89%)
Default                        : Yes
Forced                         : No

Audio #1
ID                             : 6
Format                         : AC-3
Format/Info                    : Audio Coding 3
Mode extension                 : CM (complete main)
Format settings, Endianness    : Big
Codec ID                       : A_AC3
Duration                       : 1 h 38 min
Bit rate mode                  : Constant
Bit rate                       : 384 kb/s
Channel(s)                     : 6 channels
Channel positions              : Front: L C R, Side: L R, LFE
Sampling rate                  : 48.0 kHz
Frame rate                     : 31.250 FPS (1536 spf)
Bit depth                      : 16 bits
Compression mode               : Lossy
Stream size                    : 271 MiB (7%)
Language                       : Finnish
Default                        : No
Forced                         : No

Audio #2
ID                             : 8
Format                         : MPEG Audio
Format version                 : Version 1
Format profile                 : Layer 3
Codec ID                       : A_MPEG/L3
Codec ID/Hint                  : MP3
Duration                       : 1 h 38 min
Bit rate mode                  : Constant
Bit rate                       : 192 kb/s
Channel(s)                     : 2 channels
Sampling rate                  : 48.0 kHz
Frame rate                     : 41.667 FPS (1152 spf)
Compression mode               : Lossy
Stream size                    : 136 MiB (4%)
Default                        : Yes
Forced                         : Yes

Text #1
ID                             : 1
Format                         : UTF-8
Codec ID                       : S_TEXT/UTF8
Codec ID/Info                  : UTF-8 Plain Text
Duration                       : 1 h 37 min
Bit rate                       : 29 b/s
Count of elements              : 672
Stream size                    : 21.2 KiB (0%)
Language                       : Danish
Default                        : Yes
Forced                         : No

Text #2
ID                             : 2
Format                         : UTF-8
Codec ID                       : S_TEXT/UTF8
Codec ID/Info                  : UTF-8 Plain Text
Duration                       : 1 h 35 min
Bit rate                       : 13 b/s
Count of elements              : 298
Stream size                    : 9.17 KiB (0%)
Language                       : Finnish
Default                        : No
Forced                         : No

Text #3
ID                             : 3
Format                         : UTF-8
Codec ID                       : S_TEXT/UTF8
Codec ID/Info                  : UTF-8 Plain Text
Duration                       : 1 h 37 min
Bit rate                       : 33 b/s
Count of elements              : 671
Stream size                    : 23.8 KiB (0%)
Language                       : Norwegian
Default                        : No
Forced                         : No

Text #4
ID                             : 4
Format                         : UTF-8
Codec ID                       : S_TEXT/UTF8
Codec ID/Info                  : UTF-8 Plain Text
Duration                       : 1 h 37 min
Bit rate                       : 32 b/s
Count of elements              : 670
Stream size                    : 23.5 KiB (0%)
Language                       : Swedish
Default                        : No
Forced                         : No

Text #5
ID                             : 7
Format                         : UTF-8
Codec ID                       : S_TEXT/UTF8
Codec ID/Info                  : UTF-8 Plain Text
Duration                       : 1 h 33 min
Bit rate                       : 54 b/s
Count of elements              : 617
Stream size                    : 37.1 KiB (0%)
Default                        : No
Forced                         : No




Скриншоты:
[+] Всего файлов в раздаче - 1:
Ikitie.2017.mkv3.67 GB

Текущая раздача:
ДатаКомментарии    РазмерПиры
2018-02-12 U Вечный путь / Ikitie (2017) WEBRip 1080p | L2 1 К 3.67 GB ↑ 36 ↓ 26

Показать еще раздачи по запросу вечный:
2018-02-12 U Вечный путь / Ikitie (2017) WEBRip | L2 1.60 GB ↑ 52 ↓ 42
2018-02-02 U Вечный день Валентина / Valentine's Again (2017) WEB-DLRip | L 1.53 GB ↑ 83 ↓ 56
2017-06-27 U Роман Злотников, Сергей Будеев - Вечный 5. Взгляд со стороны (2017) МР3 494.87 MB ↑ 142 ↓ 24
2017-05-25 U Вечный Ноль / The Eternal Zero / Eien no Zero (2013) DVDRip | L1 2.18 GB ↑ 140 ↓ 44
2016-04-26 U Вечный отпуск [01x01-23 из 24] (2016) SATRip 7.62 GB ↑ 173 ↓ 538
2016-04-26 U Вечный отпуск [01x01-22 из 24] (2016) SATRip 7.28 GB ↑ 134 ↓ 327
2016-04-21 U Вечный отпуск [01x01-21 из 24] (2016) SATRip 6.95 GB ↑ 211 ↓ 975

Отзывы
daryha
Фильм про "советских оккупантов" Наиболее продаваемый,тухлый продукт у шпрот.Теперь и кино.
За труды 10 за фильм 0

Зарегистрируйтесь чтобы добавить комментарий.
Обратная связь
Copyleft ©