↑↓Torrent.by
Поиск
Логин: Регистрация
Пароль: Восстановить пароль
Загрузка...

Снеговик / The Snowman (2017) BDRip-AVC от OlLanDGroup | Лицензия

Скачать snegovik-the-snowman-2017-bdrip-avc-ot-ollandgroup-licenziya.torrent
U Магнитная ссылка Размер: 2.50 GB Раздают: 71 Качают: 19 Добавлен: 2018-02-12 11:54:27
Снеговик / The Snowman (2017) BDRip-AVC от OlLanDGroup | Лицензия

Снеговик / The Snowman
«Скоро выпадет первый снег и начнется опасная игра»

Год выпуска: 2017
Страна: Великобритания, США, Швеция
Производство: Universal Pictures, Perfect World Pictures, Another Park Film
Жанр:  Ужасы, триллер, драма, криминал, детектив

Режиссёр: Томас Альфредсон
В ролях: Майкл Фассбендер, Ребекка Фергюсон (II), Шарлотта Генсбур, Йонас Карлссон, Ронан Вайберт, Дж.К. Симмонс, Вэл Килмер, Давид Денсик, Тоби Джонс

Перевод: Дублированный | Лицензия
Субтитры: Русские, Английские
Реклама: Отсутствует

Описание: В течение многих лет в день, когда выпадает первый снег, бесследно исчезают замужние женщины. Сложить все части загадочного пазла под силу только знаменитому детективу. Он потерял покой и сон, ведь время следующего снегопада неумолимо приближается.

Качество: BDRip-AVC
Продолжительность: 01:59:15

Формат: MKV
Видео кодек: MPEG-4 AVC
Аудио кодек: AC3
Видео: 1024x552 (1.85:1), 23,976 fps, x264 ~2100 kbps avg, 0.155 bit/pixel
Аудио #1: 48 kHz, AC3 Dolby Digital, 3/2 (L,C,R,l,r) + LFE ch, ~448.00 kbps avg | RUS (Лицензия)
Аудио #2: 48 kHz, AC3 Dolby Digital, 3/2 (L,C,R,l,r) + LFE ch, ~448.00 kbps avg | ENG

Дата премьеры (мир): 7 октября 2017
Дата премьеры (РФ): 23 ноября 2017, «UPI»

Релиз: Rip by:


[+] MediaInfo

Общее
Уникальный идентификатор                 : 176024855975918546546911441115185429899 (0x846D27739FFEC704A760237002D83D8B)
Полное имя                               : E:OlLanDGroupThe.Snowman.2017.BDRip(AVC).OlLanDGroup.mkv
Формат                                   : Matroska
Версия формата                           : Version 2
Размер файла                             : 2,50 Гбайт
Продолжительность                        : 1 ч. 59 м.
Общий поток                              : 2998 Кбит/сек
Название фильма                          : The.Snowman.2017   #TorpedoUK#
Дата кодирования                         : UTC 2018-02-12 02:33:58
Программа кодирования                    : mkvmerge v7.8.0 ('River Man') 32bit built on Apr  3 2015 12:11:22
Библиотека кодирования                   : libebml v1.3.1 + libmatroska v1.4.2

Видео
Идентификатор                            : 1
Формат                                   : AVC
Формат/Информация                        : Advanced Video Codec
Профиль формата                          : High@L4.1
Параметр CABAC формата                   : Да
Параметр ReFrames формата                : 10 кадров
Идентификатор кодека                     : V_MPEG4/ISO/AVC
Продолжительность                        : 1 ч. 59 м.
Битрейт                                  : 2100 Кбит/сек
Ширина                                   : 1024 пикселя
Высота                                   : 552 пикселя
Соотношение сторон                       : 1,85:1
Режим частоты кадров                     : Постоянный
Частота кадров                           : 23,976 (24000/1001) кадра/сек
Цветовое пространство                    : YUV
Субдискретизация насыщенности            : 4:2:0
Битовая глубина                          : 8 бит
Тип развёртки                            : Прогрессивная
Бит/(Пиксели*Кадры)                      : 0.155
Размер потока                            : 1,70 Гбайт (68%)
Библиотека кодирования                   : x264 core 146 r2538 121396c
Настройки программы                      : cabac=1 / ref=10 / deblock=1:-3:-3 / analyse=0x3:0x133 / me=umh / subme=11 / psy=1 / psy_rd=1.00:0.04 / mixed_ref=1 / me_range=48 / chroma_me=1 / trellis=2 / 8x8dct=1 / cqm=0 / deadzone=21,11 / fast_pskip=1 / chroma_qp_offset=-3 / threads=6 / lookahead_threads=1 / sliced_threads=0 / nr=0 / decimate=1 / interlaced=0 / bluray_compat=0 / constrained_intra=0 / bframes=10 / b_pyramid=2 / b_adapt=2 / b_bias=0 / direct=3 / weightb=1 / open_gop=0 / weightp=2 / keyint=240 / keyint_min=23 / scenecut=40 / intra_refresh=0 / rc_lookahead=40 / rc=2pass / mbtree=0 / bitrate=2100 / ratetol=1.0 / qcomp=0.60 / qpmin=0 / qpmax=69 / qpstep=4 / cplxblur=20.0 / qblur=0.5 / vbv_maxrate=50000 / vbv_bufsize=62500 / nal_hrd=none / filler=0 / ip_ratio=1.40 / pb_ratio=1.30 / aq=1:1.00
Язык                                     : English
Default                                  : Да
Forced                                   : Нет

Аудио #1
Идентификатор                            : 2
Формат                                   : AC-3
Формат/Информация                        : Audio Coding 3
Расширение режима                        : CM (complete main)
Параметр Endianness формата              : Big
Идентификатор кодека                     : A_AC3
Продолжительность                        : 1 ч. 59 м.
Вид битрейта                             : Постоянный
Битрейт                                  : 448 Кбит/сек
Каналы                                   : 6 каналов
Расположение каналов                     : Front: L C R, Side: L R, LFE
Частота                                  : 48,0 КГц
Частота кадров                           : 31,250 кадров/сек (1536 spf)
Битовая глубина                          : 16 бит
Метод сжатия                             : С потерями
Размер потока                            : 382 Мбайт (15%)
Заголовок                                : Lic
Язык                                     : Russian
Default                                  : Да
Forced                                   : Нет

Аудио #2
Идентификатор                            : 3
Формат                                   : AC-3
Формат/Информация                        : Audio Coding 3
Расширение режима                        : CM (complete main)
Параметр Endianness формата              : Big
Идентификатор кодека                     : A_AC3
Продолжительность                        : 1 ч. 59 м.
Вид битрейта                             : Постоянный
Битрейт                                  : 448 Кбит/сек
Каналы                                   : 6 каналов
Расположение каналов                     : Front: L C R, Side: L R, LFE
Частота                                  : 48,0 КГц
Частота кадров                           : 31,250 кадров/сек (1536 spf)
Битовая глубина                          : 16 бит
Метод сжатия                             : С потерями
Размер потока                            : 382 Мбайт (15%)
Заголовок                                : Original
Язык                                     : English
Default                                  : Нет
Forced                                   : Нет

Текст #1
Идентификатор                            : 4
Формат                                   : UTF-8
Идентификатор кодека                     : S_TEXT/UTF8
Идентификатор кодека/Информация          : UTF-8 Plain Text
Заголовок                                : Forced
Язык                                     : Russian
Default                                  : Да
Forced                                   : Нет

Текст #2
Идентификатор                            : 5
Формат                                   : UTF-8
Идентификатор кодека                     : S_TEXT/UTF8
Идентификатор кодека/Информация          : UTF-8 Plain Text
Заголовок                                : Full
Язык                                     : Russian
Default                                  : Нет
Forced                                   : Нет

Текст #3
Идентификатор                            : 6
Формат                                   : UTF-8
Идентификатор кодека                     : S_TEXT/UTF8
Идентификатор кодека/Информация          : UTF-8 Plain Text
Заголовок                                : Full
Язык                                     : English
Default                                  : Нет
Forced                                   : Нет

Меню
00:00:00.000                             : en:Chapter 1
00:06:23.007                             : en:Chapter 2
00:13:43.072                             : en:Chapter 3
00:20:05.662                             : en:Chapter 4
00:24:21.376                             : en:Chapter 5
00:29:25.263                             : en:Chapter 6
00:33:09.320                             : en:Chapter 7
00:42:17.284                             : en:Chapter 8
00:50:44.124                             : en:Chapter 9
00:55:33.747                             : en:Chapter 10
01:02:19.902                             : en:Chapter 11
01:08:06.457                             : en:Chapter 12
01:12:24.214                             : en:Chapter 13
01:17:31.396                             : en:Chapter 14
01:23:55.488                             : en:Chapter 15
01:29:06.883                             : en:Chapter 16
01:35:45.322                             : en:Chapter 17
01:42:39.027                             : en:Chapter 18
01:50:33.752                             : en:Chapter 19
01:54:23.982                             : en:Chapter 20



Скриншоты:
[+] Всего файлов в раздаче - 1:
The.Snowman.2017.BDRip(AVC).OlLanDGroup.mkv2.50 GB

Текущая раздача:
ДатаКомментарии    РазмерПиры
2018-02-12 U Снеговик / The Snowman (2017) BDRip-AVC от OlLanDGroup | Лицензия 2.50 GB ↑ 71 ↓ 19

Показать еще раздачи по запросу снеговик:
2018-02-12 U Снеговик / The Snowman (2017) BDRip-AVC от HELLYWOOD | Лицензия 1.46 GB ↑ 74 ↓ 40
2018-02-12 U Снеговик / The Snowman (2017) BDRip-AVC от HELLYWOOD | Лицензия 2.18 GB ↑ 47 ↓ 11
2018-02-12 U Снеговик / The Snowman (2017) BDRip от MegaPeer | Лицензия 755.81 MB ↑ 51 ↓ 8
2018-02-12 U Снеговик / The Snowman (2017) BDRip от ExKinoRay | Лицензия 1.46 GB ↑ 54 ↓ 16
2018-02-11 U Снеговик / The Snowman (2017) BDRip 1080p от ExKinoRay | Лицензия 12.19 GB ↑ 110 ↓ 114
2018-02-11 U Снеговик / The Snowman (2017) BDRip 720p от ExKinoRay | Лицензия 6.84 GB ↑ 110 ↓ 88
2018-02-11 U Снеговик / The Snowman (2017) BDRip от MegaPeer | Лицензия 1.46 GB ↑ 1200 ↓ 68

Отзывы
Зарегистрируйтесь чтобы добавить комментарий.
Обратная связь
Copyleft ©