↑↓Torrent.by
Поиск
Логин: Регистрация
Пароль: Восстановить пароль
Загрузка...

Родина / Homeland [07x01 из 12] (2018) WEB-DLRip 1080p | ColdFilm

Скачать rodina-homeland-07x01-iz-12-2018-web-dlrip-1080p-coldfilm.torrent
U Магнитная ссылка Размер: 2.19 GB Раздают: 56 Качают: 9 Добавлен: 2018-02-12 11:54:34
Родина / Homeland [07x01 из 12] (2018) WEB-DLRip 1080p | ColdFilm

Название: Родина
Оригинальное название: Homeland
Год выпуска: 2018
Жанр:  Триллер, драма, детектив
Режиссер: Кит Гордон, Лесли Линка Глаттер, Алекс Грейвз, Такер Гейтс, Дэниэл Эттиэс
В ролях: Клер Дэйнс, Руперт Френд, Элизабет Марвел, Ф. Мюррэй Абрахам, Мэнди Пэтинкин, Хилл Харпер, Мори Стерлинг, Эшли Шарп Честнат, Доминик Фумуса, Патрик Сабонгуй, Зайнаб Джа, Альфредо Нарцисо, Джамал Маллори-МакКри, Бернард Уайт, Аллан Кордунер, Нина Хосс, Джейк Уэбер, Дебора Хедуолл

О фильме:
Спустя несколько месяцев после событий предыдущего сезона, Кэрри вернулась в США и живёт в Бруклине, Нью-Йорке. Сейчас она работает в фонде, который оказывает помощь мусульманам, живущим в США. Сезон включает президентские выборы, и его действия разворачиваются между днём выборов и днём инаугурации.

Страна: США
Студия: Teakwood Lane Productions, Cherry Pie Productions, Keshet Broadcasting
Продолжительность: 1 x ~ 00:50:00
Перевод: Любительский многоголосый [ColdFilm]

Файл
Кодек: x.264
Качество: WEB-DLRip 1080p
Видео: 3500 Кбит/с,  1920x1080, 29.970 fps
Аудио: Русский (AC3, 2 ch, 125 Кбит/с)

Релиз:


[+] MediaInfo
General
Unique ID                   : 207587943808197986239397520801355160503 (0x9C2BFBD43F80B2E29B8857BDAB365BB7)
Complete name               : E:GreenRayHomeland.S07E01.720p.ColdFilm.mkv
Format                      : Matroska
Format version              : Version 2
File size                   : 1.76 GiB
Duration                    : 1 h 0 min
Overall bit rate            : 4 171 kb/s
Encoded date                : UTC 2018-02-11 13:55:12 / UTC 2018-02-11 00:07:01
Writing application         : mkvmerge v3.3.0 ('Language') built on Mar 24 2010 14:59:24
Writing library             : libebml v0.8.0 + libmatroska v0.9.0 / Lavf54.63.104

Video
ID                          : 1
Format                      : AVC
Format/Info                 : Advanced Video Codec
Format profile              : Main@L3.1
Format settings             : CABAC / 1 Ref Frames
Format settings, CABAC      : Yes
Format settings, ReFrames   : 1 frame
Codec ID                    : V_MPEG4/ISO/AVC
Duration                    : 1 h 0 min
Bit rate                    : 4 000 kb/s
Width                       : 1 280 pixels
Height                      : 720 pixels
Display aspect ratio        : 16:9
Frame rate mode             : Constant
Frame rate                  : 23.976 (24000/1001) FPS
Color space                 : YUV
Chroma subsampling          : 4:2:0
Bit depth                   : 8 bits
Scan type                   : Progressive
Bits/(Pixel*Frame)          : 0.181
Stream size                 : 1.65 GiB (93%)
Writing library             : x264 core 129
Encoding settings           : cabac=1 / ref=1 / deblock=1:0:0 / analyse=0x1:0x131 / me=dia / subme=2 / psy=1 / psy_rd=1.00:0.00 / mixed_ref=0 / me_range=16 / chroma_me=1 / trellis=0 / 8x8dct=0 / cqm=0 / deadzone=21,11 / fast_pskip=1 / chroma_qp_offset=0 / threads=4 / lookahead_threads=1 / sliced_threads=0 / nr=0 / decimate=1 / interlaced=0 / bluray_compat=0 / constrained_intra=0 / bframes=0 / weightp=2 / keyint=250 / keyint_min=25 / scenecut=40 / intra_refresh=0 / rc_lookahead=40 / rc=abr / mbtree=1 / bitrate=4000 / ratetol=1.0 / qcomp=0.60 / qpmin=10 / qpmax=51 / qpstep=4 / ip_ratio=1.41 / aq=1:1.00
Default                     : No
Forced                      : No

Audio
ID                          : 2
Format                      : AC-3
Format/Info                 : Audio Coding 3
Codec ID                    : A_AC3
Duration                    : 1 h 0 min
Bit rate mode               : Constant
Bit rate                    : 192 kb/s
Channel(s)                  : 2 channels
Channel positions           : Front: L R
Sampling rate               : 48.0 kHz
Frame rate                  : 31.250 FPS (1536 SPF)
Bit depth                   : 16 bits
Compression mode            : Lossy
Stream size                 : 83.1 MiB (5%)
Service kind                : Complete Main
Default                     : Yes
Forced                      : No




Скриншоты:
[+] Всего файлов в раздаче - 1:
Homeland.S07E01.1080p.ColdFilm.mkv2.19 GB

Текущая раздача:
ДатаКомментарии    РазмерПиры
2018-02-12 U Родина / Homeland [07x01 из 12] (2018) WEB-DLRip 1080p | ColdFilm 1 К 2.19 GB ↑ 56 ↓ 9

Показать еще раздачи по запросу родина:
Вчера U Родина / Homeland [07x01-02 из 12] (2018) WEB-DL 720p | Amedia 3.19 GB ↑ 57 ↓ 104
2018-02-12 U Родина / Homeland [07x01 из 12] (2018) WEB-DL 1080p | Amedia 5.03 GB ↑ 100 ↓ 19
2018-02-12 U Родина / Homeland [07x01 из 12] (2018) WEB-DLRip | Amedia 750.23 MB ↑ 64 ↓ 34
2018-02-12 U Родина / Homeland [07x01 из 12] (2018) WEB-DL 720p | Amedia 1.64 GB ↑ 72 ↓ 27
2017-04-12 U Родина / Homeland [S06] (2017) WEBRip | LostFilm 2К7.33 GB ↑ 107 ↓ 144
2017-04-11 U Родина / Homeland [S06] (2017) WEB-DLRip от qqss44 | Amedia 7.10 GB ↑ 31 ↓ 97
2017-04-04 U Родина / Homeland [06x01-11 из 12] (2017) WEB-DLRip от qqss44 | Amedia 6.51 GB ↑ 49 ↓ 192

Отзывы
garik89
Отлично! оперативно! Спасибо!
Премьера 11 февраля!)

Зарегистрируйтесь чтобы добавить комментарий.
Обратная связь
Copyleft ©