↑↓Torrent.by
Поиск
Логин: Регистрация
Пароль: Восстановить пароль
Загрузка...

100 метров / 100 metros (2016) HDRip 720p | GreenРай Studio

Скачать 100-metrov-metros-2016-hdrip-720p-greenray-studio.torrent
U Магнитная ссылка Размер: 3.49 GB Раздают: 46 Качают: 20 Добавлен: 2018-02-12 13:26:56
100 метров / 100 metros (2016) HDRip 720p | GreenРай Studio

Название: 100 метров
Оригинальное название: 100 metros
Год выпуска: 2016
Жанр:  Комедия, драма, реальные события
Режиссер: Марсель Баррена
В ролях: Дэни Ровира, Карра Элехальде, Александра Хименес, Давид Вердагер, Клара Сегура, Альба Рибас, Бруно Бергондзини, Рикарду Перейра, Мануэла Коуту, Марк Балагер

О фильме:
Фильм основан на реальных событиях. Рассказывает о человеке, которому поставили диагноз - рассеянный склероз. Но этот человек не сдался и прошел триатлон. В итоге он проплыл 3,8 километра, проехал на велосипеде 180 километров и затем пробежал 42 километра. До этого он не мог пройти и ста метров.


Страна: Испания, Португалия
Студия: Castelao Pictures, Cien Metros La Película
Продолжительность: 01:48:45
Перевод: Любительский многоголосый [GreenРай Studio]

Файл
Кодек: x264
Качество: HDRip 720p
Видео: 4000 Кбит/с, 1280x536, 24.000 fps
Звук: Русский (AC3, 2 ch, 640 Кбит/с)

Внимание,имеется  видео и аудио реклама от спонсора показа

Над релизом работали:
Состав дикторов Борис Белодедов, Алёна Соколова, Андрей Данилко
Руководитель проекта и координатор: Евгений Овчаренко
Организатор и координатор: Никита Марков
Пиар менеджер студии: Гриша Чернозатонский
Техническая поддержка: Александр Методий

Релиз:


[+] MediaInfo
General
Unique ID                   : 216894057945982179649344113022629371212 (0xA32C46AE36956B3A967CCBB6D0CCDD4C)
Complete name               : E:GreenRay100.metros.2016.P.BDRip.720p.mkv
Format                      : Matroska
Format version              : Version 4 / Version 2
File size                   : 3.49 GiB
Duration                    : 1 h 49 min
Overall bit rate mode       : Constant
Overall bit rate            : 4 567 kb/s
Encoded date                : UTC 2018-02-10 13:30:33
Writing application         : mkvmerge v8.3.0 ('Over the Horizon') 64bit
Writing library             : libebml v1.3.1 + libmatroska v1.4.2

Video
ID                          : 1
Format                      : AVC
Format/Info                 : Advanced Video Codec
Format profile              : Main@L3.1
Format settings             : CABAC / 3 Ref Frames
Format settings, CABAC      : Yes
Format settings, ReFrames   : 3 frames
Format settings, GOP        : M=4, N=15
Codec ID                    : V_MPEG4/ISO/AVC
Duration                    : 1 h 49 min
Bit rate mode               : Constant
Bit rate                    : 4 000 kb/s
Width                       : 1 280 pixels
Height                      : 536 pixels
Display aspect ratio        : 2.40:1
Frame rate mode             : Constant
Frame rate                  : 24.000 FPS
Standard                    : NTSC
Color space                 : YUV
Chroma subsampling          : 4:2:0
Bit depth                   : 8 bits
Scan type                   : Progressive
Bits/(Pixel*Frame)          : 0.243
Stream size                 : 3.00 GiB (86%)
Language                    : English
Default                     : Yes
Forced                      : No
Color range                 : Limited

Audio
ID                          : 2
Format                      : AC-3
Format/Info                 : Audio Coding 3
Codec ID                    : A_AC3
Duration                    : 1 h 49 min
Bit rate mode               : Constant
Bit rate                    : 640 kb/s
Channel(s)                  : 2 channels
Channel positions           : Front: L R
Sampling rate               : 48.0 kHz
Frame rate                  : 31.250 FPS (1536 SPF)
Bit depth                   : 16 bits
Compression mode            : Lossy
Stream size                 : 500 MiB (14%)
Service kind                : Complete Main
Default                     : Yes
Forced                      : No




Скриншоты:
[+] Всего файлов в раздаче - 1:
100.metros.2016.P.BDRip.720p.mkv3.49 GB

Текущая раздача:
ДатаКомментарии    РазмерПиры
2018-02-12 U 100 метров / 100 metros (2016) HDRip 720p | GreenРай Studio 3.49 GB ↑ 46 ↓ 20

Похожие раздачи по запросу - метров:
2017-05-10 U 100 метров / 100 metros (2016) BDRip от MegaPeer | L1 1.46 GB ↑ 320 ↓ 132

Отзывы
Зарегистрируйтесь чтобы добавить комментарий.
Обратная связь
Copyleft ©