↑↓Torrent.by
Поиск
Логин: Регистрация
Пароль: Восстановить пароль
Загрузка...

Ложь, которую мы говорим / Lies We Tell (2017) HDRip | L2

Скачать lozh-kotoruyu-my-govorim-lies-we-tell-2017-hdrip-l2.torrent
U Магнитная ссылка Размер: 1.38 GB Раздают: 69 Качают: 29 Добавлен: 2018-02-12 15:04:08
Ложь, которую мы говорим / Lies We Tell (2017) HDRip | L2

Название: Ложь, которую мы говорим
Оригинальное название: Lies We Tell

Год выхода: 2017
Жанр: Триллер, мелодрама, криминал
Режиссер: Миту Мисра
В ролях: Гэбриел Бирн, Сибилла Дин, Марк Эдди, Жан Уддин, Рис Ричи, Джина МакКи, Николас Фэррел, Эмили Атак, Хариш Патель, Харви Кейтель и другие
О фильме:
Проверенному водителю приходится иметь дело с британско-пакистанской любовницей его мертвого нанимателя, её темное прошлое втягивает его в квест по спасению её 16-летней сестры от насильственного брака с их кузином-гангстером.

Страна: Великобритания, Bradford International Film Associates
Продолжительность: 01:50:12
Перевод: Любительский (двухголосый закадровый) | HiWayGrope

Файл
Кодек: XviD
Качество: HDRip
Видео: 720x304, 24 fps, ~1589 kbps, 0.30 bit/pixel
Звук:
Аудио rus: AC3, 48 kHz, 2 ch, 192 Kbps
Субтитры: отсутствуют

Реклама: присутствует

ВНИМАНИЕ! Присутствует ненормативная лексика

Семпл

Релиз от: HiWayGrope


[+] MediaInfo:

General
Complete name                            : E:Lies.We.Tell.2017.HDRip.HiWayGropeLies.We.Tell.2017.HDRip.HiWayGrope.avi
Format                                   : AVI
Format/Info                              : Audio Video Interleave
File size                                : 1.38 GiB
Duration                                 : 1h 50mn
Overall bit rate                         : 1 791 Kbps
Writing application                      : VirtualDubMod 1.5.10.3 (build 2550/release)
Writing library                          : VirtualDubMod build 2550/release

Video
ID                                       : 0
Format                                   : MPEG-4 Visual
Format profile                           : Advanced Simple@L5
Format settings, BVOP                    : 1
Format settings, QPel                    : No
Format settings, GMC                     : No warppoints
Format settings, Matrix                  : Default (MPEG)
Codec ID                                 : XVID
Codec ID/Hint                            : XviD
Duration                                 : 1h 50mn
Bit rate                                 : 1 590 Kbps
Width                                    : 720 pixels
Height                                   : 304 pixels
Display aspect ratio                     : 2.35:1
Frame rate                               : 24.000 fps
Color space                              : YUV
Chroma subsampling                       : 4:2:0
Bit depth                                : 8 bits
Scan type                                : Progressive
Compression mode                         : Lossy
Bits/(Pixel*Frame)                       : 0.303
Stream size                              : 1.22 GiB (89%)
Writing library                          : XviD 73

Audio
ID                                       : 1
Format                                   : AC-3
Format/Info                              : Audio Coding 3
Mode extension                           : CM (complete main)
Format settings, Endianness              : Big
Codec ID                                 : 2000
Duration                                 : 1h 50mn
Bit rate mode                            : Constant
Bit rate                                 : 192 Kbps
Channel(s)                               : 2 channels
Channel positions                        : Front: L R
Sampling rate                            : 48.0 KHz
Frame rate                               : 31.250 fps (1536 spf)
Compression mode                         : Lossy
Stream size                              : 151 MiB (11%)
Alignment                                : Split accross interleaves
Interleave, duration                     : 42 ms (1.00 video frame)
Interleave, preload duration             : 500 ms




Скриншоты:
[+] Всего файлов в раздаче - 1:
Lies.We.Tell.2017.HDRip.HiWayGrope.avi1.38 GB

Текущая раздача:
ДатаКомментарии    РазмерПиры
2018-02-12 U Ложь, которую мы говорим / Lies We Tell (2017) HDRip | L2 1.38 GB ↑ 69 ↓ 29

Показать еще раздачи по запросу ложь:
2017-11-13 U Явная ложь / Thumper (2017) WEBDLRip 720p | AlexFilm 2.44 GB ↑ 145 ↓ 105
2017-11-10 U Явная ложь / Thumper (2017) WEBRip 720p | L2 2.60 GB ↑ 60 ↓ 17
2017-11-10 U Явная ложь / Thumper (2017) WEBRip | L2 1.36 GB ↑ 80 ↓ 30
2017-09-09 U Тайны и ложь [01-08 из 08] (2017) WEB-DLRip-AVC от Files-x 5.04 GB ↑ 62 ↓ 41
2017-09-08 U Тайны и ложь [01-08 из 08] (2017) WEB-DLRip от Files-x 4.69 GB ↑ 296 ↓ 341
2017-09-07 U Тайны и ложь [01-07 из 08] (2017) WEB-DLRip от Files-x 4.12 GB ↑ 37 ↓ 102
2017-09-06 U Тайны и ложь / Серии: 1-6 из 8 (Дмитрий Лактионов) [2017, Детектив, драма, триллер, WEBRip] 3.52 GB ↑ 69 ↓ 49

Отзывы
Зарегистрируйтесь чтобы добавить комментарий.
Обратная связь
Copyleft ©