↑↓Torrent.by
Поиск
Логин: Регистрация
Пароль: Восстановить пароль
Загрузка...

День мертвецов: Злая кровь / Day of the Dead: Bloodline (2018) WEB-DL 1080p | iTunes

Скачать den-mertvecov-zlaya-krov-day-of-the-dead-bloodline-2018-web-dl-1080p-itunes.torrent
U Магнитная ссылка Размер: 3.07 GB Раздают: 174 Качают: 131 Добавлен: 2018-02-12 22:25:00
День мертвецов: Злая кровь / Day of the Dead: Bloodline (2018) WEB-DL 1080p | iTunes

Название: День мертвецов: Злая кровь
Оригинальное название: Day of the Dead: Bloodline
Год выхода: 2018
Жанр: Ужасы
Страна: США
Студия: Nu Boyana Film Studios
Перевод: Дублированный | iTunes
Продолжительность: 01:29:59
Режиссер: Гектор Эрнандес
В ролях: Софи Скелтон, Джонатон Шек, Джефф Гам, Маркус Ванко, Марк Смит, Лиллиэн Бланкеншип, Шари Уотсон, Рэйчел О'Мира, Люк Казинс, Лорина Камбурова и др.

О фильме: Чудовищный вирус, превращающий людей в зомби, поставил под угрозу само существование человеческой расы. Группе военных удалось укрыться в катакомбах, где молодая и обаятельная Зои проводит опыты по поиску вакцины. Для нахождения нужной формулы не хватает лишь одного «элемента». На его поиски отправляется группа спецназевцев. Дерзкая вылазка в «мёртвую зону» оборачивается провалом и запускает обратный отсчет времени.

Файл
Качество: WEB-DL 1080p
Видео: MPEG-4 AVC, 1920x806, 4501 kbps, 24,000 fps
Звук: Русский: AC3, 6 ch, 48 kHz, 384 kbps
[+] MI
Общее
Уникальный идентификатор                 : 185086240949598666823397764152398520563 (0x8B3E503945724CC3A6D63D1E0CD520F3)
Полное имя                               : E:UttorentДень мервтецовДень мертвецов_ Злая кровь (1080p HD.mkv
Формат                                   : Matroska
Версия формата                           : Version 4 / Version 2
Размер файла                             : 3,07 Гбайт
Продолжительность                        : 1 ч. 29 м.
Общий поток                              : 4887 Кбит/сек
Дата кодирования                         : UTC 2018-02-12 15:46:06
Программа кодирования                    : mkvmerge v9.5.0 ('Quiet Fire') 64bit
Библиотека кодирования                   : libebml v1.3.4 + libmatroska v1.4.5

Видео
Идентификатор                            : 1
Формат                                   : AVC
Формат/Информация                        : Advanced Video Codec
Профиль формата                          : High@L4
Настройки формата                        : CABAC / 5 Ref Frames
Параметр CABAC формата                   : Да
Параметр RefFrames формата               : 5 кадров
Идентификатор кодека                     : V_MPEG4/ISO/AVC
Продолжительность                        : 1 ч. 29 м.
Битрейт                                  : 4501 Кбит/сек
Ширина                                   : 1920 пикселей
Высота                                   : 806 пикселей
Соотношение сторон                       : 2,40:1
Режим частоты кадров                     : Постоянный
Частота кадров                           : 24,000 кадра/сек
Цветовое пространство                    : YUV
Субдискретизация насыщенности            : 4:2:0
Битовая глубина                          : 8 бит
Тип развёртки                            : Прогрессивная
Бит/(Пиксели*Кадры)                      : 0.121
Размер потока                            : 2,83 Гбайт (92%)
Язык                                     : English
Default                                  : Да
Forced                                   : Нет
Цветовой диапазон                        : Limited
Основные цвета                           : BT.709
Характеристики трансфера                 : BT.709
Коэффициенты матрицы                     : BT.709

Аудио
Идентификатор                            : 2
Формат                                   : AC-3
Формат/Информация                        : Audio Coding 3
Параметр Endianness формата              : Big
Идентификатор кодека                     : A_AC3
Продолжительность                        : 1 ч. 29 м.
Вид битрейта                             : Постоянный
Битрейт                                  : 384 Кбит/сек
Каналы                                   : 6 каналов
Расположение каналов                     : Front: L C R, Side: L R, LFE
Частота                                  : 48,0 КГц
Частота кадров                           : 31,250 кадров/сек (1536 SPF)
Битовая глубина                          : 16 бит
Метод сжатия                             : С потерями
Размер потока                            : 247 Мбайт (8%)
Язык                                     : Russian
Default                                  : Да
Forced                                   : Нет

Меню
00:00:00.000                             : en:Глава 1
00:11:56.083                             : en:Глава 2
00:18:41.999                             : en:Глава 3
00:25:40.749                             : en:Глава 4
00:32:36.540                             : en:Глава 5
00:38:33.206                             : en:Глава 6
00:44:01.789                             : en:Глава 7
00:48:57.997                             : en:Глава 8
00:55:13.413                             : en:Глава 9
01:02:12.413                             : en:Глава 10
01:08:40.996                             : en:Глава 11
01:13:48.704                             : en:Глава 12
01:19:30.370                             : en:Глава 13



Скриншоты:
[+] Всего файлов в раздаче - 1:
День мертвецов_ Злая кровь (1080p HD.mkv3.07 GB

Текущая раздача:
ДатаКомментарии    РазмерПиры
2018-02-12 U День мертвецов: Злая кровь / Day of the Dead: Bloodline (2018) WEB-DL 1080p | iTunes 3.07 GB ↑ 174 ↓ 131

Показать еще раздачи по запросу день:
2018-10-12 U Впереди день [01-08 из 08] (2018) HDTVRip-AVC от Files-x 6.22 GB ↑ 73 ↓ 95
2018-10-12 U Впереди день [01-08 из 08] (2018) HDTVRip от Files-x 4.81 GB ↑ 110 ↓ 157
2018-10-12 U Впереди день [01-06 из 08] (2018) HDTVRip от Files-x 3.62 GB ↑ 45 ↓ 41
2018-09-06 U Один день конца света / The End? / In un giorno la fine (2017) WEBRip 720p | L1 1.23 GB ↑ 76 ↓ 8
2018-09-06 U Один день конца света / The End? / In un giorno la fine (2017) WEB-DL 1080p | L1 3.39 GB ↑ 63 ↓ 12
2018-09-06 U Один день конца света / The End? / In un giorno la fine (2017) WEBRip-AVC | L1 770.34 MB ↑ 128 ↓ 13
2018-08-31 U Код доступа. Падение Титана: последний день СССР (2018) SATRip 546.12 MB ↑ 41 ↓ 9

Отзывы
Зарегистрируйтесь чтобы добавить комментарий.
Обратная связь
Copyleft ©