↑↓Torrent.by
Поиск
Логин: Регистрация
Пароль: Восстановить пароль
Загрузка...

Рождество в Эль-Камино / El Camino Christmas (2017) WEBRip от R.G.Resident | L

Скачать rozhdestvo-v-el-kamino-camino-christmas-2017-webrip-ot-r-g-resident-l.torrent
U Магнитная ссылка Размер: 1.38 GB Раздают: 35 Качают: 8 Добавлен: 2018-02-13 06:20:07
Рождество в Эль-Камино / El Camino Christmas (2017) WEBRip от R.G.Resident | L

Название: Рождество в Эль-Камино
Оригинальное название: El Camino Christmas
Год выпуска: 2017
Страна: США
Жанр: комедия
Перевод: Любительский многоголосый [HDrezka Studio]
Примечание: Релиз без рекламы
Продолжительность: 01:29:15
Режиссер: Дэвид Е. Талберт
В ролях: Дэкс Шепард (Deputy Billy Calhoun), Кертвуд Смит (Sheriff Bob Fuller), Люк Граймс (Eric Roth), Эмилио Ривера (Vicente Santos), Кимберли Куинн (Jewels), Купер Торнтон (Stan the Weather Man), Шэрон Мэдден (Edna), Мишель Майлетт (Kate Daniels), Винсент Д’Онофрио (Carl Hooker), Джон Пози (Old Farmer), Ashton Bright (Seth), Маргарита Франко (Dr. Kamjen)

Описание:
В центре сюжета - парень, попавший накануне Рождества в нелепую ситуацию. Главный герой оказывается запертым в магазине спиртного вместе с ещё пятью неудачниками.

Качество: WEBRip
Формат: AVI
Видео: XviD, 720x304 (2.35:1), 1823 kbps, 23,976 fps, 0,347 bpp
Аудио: AC3 / 2.0 / 48 kHz / 384 kbps /
Семпл

Релиз:


[+] ОтчетМедиаИнфо

General
Complete name                            : E:El.Camino.Christmas.2017.WEBRip.MVO.R.G.Resident.avi
Format                                   : AVI
Format/Info                              : Audio Video Interleave
File size                                : 1.38 GiB
Duration                                 : 1 h 29 min
Overall bit rate                         : 2 216 kb/s
Writing application                      : VirtualDubModRus 1.5.10.2 (build 2542/release)
Writing library                          : VirtualDubMod build 2542/release

Video
ID                                       : 0
Format                                   : MPEG-4 Visual
Format profile                           : Advanced Simple@L5
Format settings, BVOP                    : 2
Format settings, QPel                    : No
Format settings, GMC                     : No warppoints
Format settings, Matrix                  : Custom
Codec ID                                 : XVID
Codec ID/Hint                            : XviD
Duration                                 : 1 h 29 min
Bit rate                                 : 1 823 kb/s
Width                                    : 720 pixels
Height                                   : 304 pixels
Display aspect ratio                     : 2.35:1
Frame rate                               : 23.976 (24000/1001) FPS
Color space                              : YUV
Chroma subsampling                       : 4:2:0
Bit depth                                : 8 bits
Scan type                                : Progressive
Compression mode                         : Lossy
Bits/(Pixel*Frame)                       : 0.347
Stream size                              : 1.14 GiB (82%)
Writing library                          : XviD 73

Audio
ID                                       : 1
Format                                   : AC-3
Format/Info                              : Audio Coding 3
Mode extension                           : CM (complete main)
Format settings, Endianness              : Big
Codec ID                                 : 2000
Duration                                 : 1 h 29 min
Bit rate mode                            : Constant
Bit rate                                 : 384 kb/s
Channel(s)                               : 2 channels
Channel positions                        : Front: L R
Sampling rate                            : 48.0 kHz
Frame rate                               : 31.250 FPS (1536 spf)
Compression mode                         : Lossy
Stream size                              : 245 MiB (17%)
Alignment                                : Split accross interleaves
Interleave, duration                     : 42  ms (1.00 video frame)
Interleave, preload duration             : 500  ms




Скриншоты:
[+] Всего файлов в раздаче - 1:
El.Camino.Christmas.2017.WEBRip.MVO.R.G.Resident.avi1.38 GB

Текущая раздача:
ДатаКомментарии    РазмерПиры
2018-02-13 U Рождество в Эль-Камино / El Camino Christmas (2017) WEBRip от R.G.Resident | L 1.38 GB ↑ 35 ↓ 8

Показать еще раздачи по запросу рождество:
2018-05-20 U Худшее Рождество Сердитой кошки / Grumpy Cat's Worst Christmas Ever (2014) HDTV 1080i | P 2.99 GB ↑ 26 ↓ 13
2018-03-26 U Убойная мамаша или киллер на рождество / Hit Mom: Mörderische Weinachten (2017) HDTVRip 720p | GreenРай Studio 2.56 GB ↑ 52 ↓ 19
2018-03-26 U Убойная мамаша или киллер на рождество / Hit Mom: Mörderische Weinachten (2017) HDTVRip | GreenРай Studio 1К1.37 GB ↑ 89 ↓ 34
2018-03-21 U Человек, который изобрёл Рождество / The Man Who Invented Christmas (2017) BDRip от MegaPeer | HDRezka Studio 1.41 GB ↑ 186 ↓ 40
2018-03-20 U Человек, который изобрёл Рождество / The Man Who Invented Christmas (2017) BDRip 1080p | HDRezka Studio 8.87 GB ↑ 64 ↓ 55
2018-01-08 U Рождество с Григорием Лепсом (2018) WEBRip от Files-х 1.58 GB ↑ 43 ↓ 35
2018-01-04 U Рождество - Новое и Лучшее (2018) MP3 398.68 MB ↑ 257 ↓ 25

Отзывы
Зарегистрируйтесь чтобы добавить комментарий.
Обратная связь
Copyleft ©