↑↓Torrent.by
Поиск
Логин: Регистрация
Пароль: Восстановить пароль
Загрузка...

Парадокс Кловерфилда / Частица Бога / The Cloverfield Paradox (2018) WEBRip 1080p | NewStudio, BaibaKo

Скачать paradoks-kloverfilda-chastica-boga-the-cloverfield-paradox-2018-webrip-1080p-newstudio-baibako.torrent
U Магнитная ссылка Размер: 8.39 GB Раздают: 63 Качают: 117 Добавлен: 2018-02-13 10:54:48
Парадокс Кловерфилда / Частица Бога / The Cloverfield Paradox (2018) WEBRip 1080p | NewStudio, BaibaKo

Название: Парадокс Кловерфилда
Оригинальное название: The Cloverfield Paradox
Год выпуска: 2018
Жанр:  ужасы, фантастика, триллер, детектив
Режиссер: Джулиус Она
В ролях: Гугу Эмбата-Ро (Hamilton), Дэвид Ойелоуо (Kiel), Даниэль Брюль (Schmidt), Джон Ортис (Monk), Крис О’Дауд (Mundy), Аксель Хенни (Volkov), Чжан Цзыи (Tam), Элизабет Дебики (Jensen), Роджер Дейвис (Michael), Кловер Ни (Molly), Jordan Rivera (Ayana Age 7), Michael Stokes III (Isaac Age 7)

О фильме:
В то время как земной мир пребывает на грани войны за ресурсы, в космосе группа учёных проводит испытания устройства, которое способно решить проблему энергетического кризиса. Несколько неудачных попыток вводят учёных в отчаяние. Топлива осталось на три запуска, и когда вдруг происходит удачный запуск устройства, радость длится недолго - команде предстоит иметь дело с очень странными явлениями.

Страна: США
Студия: Bad Robot, Paramount Pictures
Продолжительность: 01:42:26
Перевод: Профессиональный (многоголосый, закадровый) NewStudio + Любительский (многоголосый, закадровый) BaibaKo

Файл
Качество: WEBRip 1080p
Формат: Matroska
Видео:  1920х800 at 23.976 fps, MPEG-4 AVC, ~10300 kbps avg
Аудио#1: Russian: 48 kHz, AC3, 3/2 (L,C,R,l,r) + LFE ch, ~384 kbps avg |Многоголосый закадровый, NewStudio|
Аудио#2: Russian: 48 kHz, AC3, 3/2 (L,C,R,l,r) + LFE ch, ~448 kbps avg |Многоголосый закадровый, BaibaKo|
Аудио#3: English: 48 kHz, EAC3, 3/2 (L,C,R,l,r) + LFE ch, ~448 kbps avg
Субтитры: Russian (Physkids), English

***Примечание: Без рекламы.
***Релиз: Wanterlude.


[+] Знаете ли вы, что...
Название «Частица Бога» было дано фильму с самого начала.
События, о которых рассказывается в фильме, произошли до событий, описанных в фильме Мэтта Ривза «Монстро» (2008).
В фильме «Монстро» на планете нет энергетического кризиса.



[+] MediaInfo
Общее
Уникальный идентификатор                 : 301781487639337679304456790348860522744 (0xE30900184A2F4A90AE04EE58FAC880F8)
Полное имя                               : The.Cloverfield.Paradox.2018.WEBRip.1080p.NewStudio.Baibako.Wanterlude.mkv
Формат                                   : Matroska
Версия формата                           : Version 4 / Version 2
Размер файла                             : 8,39 Гбайт
Продолжительность                        : 1 ч. 41 м.
Общий поток                              : 11,8 Мбит/сек
Название фильма                          : The Cloverfield Paradox | NewStudio, Baibako
Дата кодирования                         : UTC 2018-02-13 06:21:03
Программа кодирования                    : mkvmerge v19.0.0 ('Brave Captain') 64-bit
Библиотека кодирования                   : libebml v1.3.5 + libmatroska v1.4.8

Видео
Идентификатор                            : 1
Формат                                   : AVC
Формат/Информация                        : Advanced Video Codec
Профиль формата                          : High@L4.1
Параметр CABAC формата                   : Да
Параметр ReFrames формата                : 5 кадров
Идентификатор кодека                     : V_MPEG4/ISO/AVC
Продолжительность                        : 1 ч. 41 м.
Битрейт                                  : 10,3 Мбит/сек
Ширина                                   : 1920 пикселей
Высота                                   : 800 пикселей
Соотношение сторон                       : 2,40:1
Режим частоты кадров                     : Постоянный
Частота кадров                           : 23,976 кадра/сек
Цветовое пространство                    : YUV
Субдискретизация насыщенности            : 4:2:0
Битовая глубина                          : 8 бит
Тип развёртки                            : Прогрессивная
Бит/(Пиксели*Кадры)                      : 0.279
Размер потока                            : 7,31 Гбайт (87%)
Заголовок                                : The Cloverfield Paradox | NewStudio, Baibako
Библиотека кодирования                   : x264 core 148 r2744 b97ae06
Настройки программы                      : cabac=1 / ref=5 / deblock=1:-3:-3 / analyse=0x3:0x133 / me=umh / subme=10 / psy=1 / psy_rd=1.00:0.00 / mixed_ref=1 / me_range=48 / chroma_me=1 / trellis=2 / 8x8dct=1 / cqm=0 / deadzone=21,11 / fast_pskip=0 / chroma_qp_offset=-2 / threads=24 / lookahead_threads=4 / sliced_threads=0 / nr=0 / decimate=0 / interlaced=0 / bluray_compat=0 / constrained_intra=0 / bframes=9 / b_pyramid=0 / b_adapt=2 / b_bias=0 / direct=3 / weightb=1 / open_gop=0 / weightp=2 / keyint=240 / keyint_min=23 / scenecut=40 / intra_refresh=0 / rc_lookahead=60 / rc=crf / mbtree=0 / crf=17.7 / qcomp=0.60 / qpmin=10 / qpmax=51 / qpstep=4 / vbv_maxrate=62500 / vbv_bufsize=78125 / crf_max=0.0 / nal_hrd=none / filler=0 / ip_ratio=1.40 / pb_ratio=1.30 / aq=3:0.65
Default                                  : Да
Forced                                   : Нет

Аудио #1
Идентификатор                            : 2
Формат                                   : AC-3
Формат/Информация                        : Audio Coding 3
Расширение режима                        : CM (complete main)
Параметр Endianness формата              : Big
Идентификатор кодека                     : A_AC3
Продолжительность                        : 1 ч. 41 м.
Вид битрейта                             : Постоянный
Битрейт                                  : 384 Кбит/сек
Каналы                                   : 6 каналов
Расположение каналов                     : Front: L C R, Side: L R, LFE
Частота                                  : 48,0 КГц
Битовая глубина                          : 16 бит
Метод сжатия                             : С потерями
Размер потока                            : 280 Мбайт (3%)
Заголовок                                : NewStudio | Wanterlude
Язык                                     : Russian
Default                                  : Да
Forced                                   : Нет

Аудио #2
Идентификатор                            : 3
Формат                                   : AC-3
Формат/Информация                        : Audio Coding 3
Расширение режима                        : CM (complete main)
Параметр Endianness формата              : Big
Идентификатор кодека                     : A_AC3
Продолжительность                        : 1 ч. 41 м.
Вид битрейта                             : Постоянный
Битрейт                                  : 448 Кбит/сек
Каналы                                   : 6 каналов
Расположение каналов                     : Front: L C R, Side: L R, LFE
Частота                                  : 48,0 КГц
Битовая глубина                          : 16 бит
Метод сжатия                             : С потерями
Размер потока                            : 326 Мбайт (4%)
Заголовок                                : BaibaKo
Язык                                     : Russian
Default                                  : Нет
Forced                                   : Нет

Аудио #3
Идентификатор                            : 4
Формат                                   : E-AC-3
Формат/Информация                        : Audio Coding 3
Параметр Endianness формата              : Big
Идентификатор кодека                     : A_EAC3
Продолжительность                        : 1 ч. 41 м.
Вид битрейта                             : Постоянный
Битрейт                                  : 448 Кбит/сек
Каналы                                   : 6 каналов
Расположение каналов                     : Front: L C R, Side: L R, LFE
Частота                                  : 48,0 КГц
Метод сжатия                             : С потерями
Размер потока                            : 326 Мбайт (4%)
Язык                                     : English
Default                                  : Нет
Forced                                   : Нет

Текст #1
Идентификатор                            : 5
Формат                                   : UTF-8
Идентификатор кодека                     : S_TEXT/UTF8
Идентификатор кодека/Информация          : UTF-8 Plain Text
Заголовок                                : перевод Physkids
Язык                                     : Russian
Default                                  : Нет
Forced                                   : Нет

Текст #2
Идентификатор                            : 6
Формат                                   : UTF-8
Идентификатор кодека                     : S_TEXT/UTF8
Идентификатор кодека/Информация          : UTF-8 Plain Text
Язык                                     : English
Default                                  : Нет
Forced                                   : Нет



[+] Знаете ли вы, что..
Фильм полная шляпа?



Скриншоты:
[+] Всего файлов в раздаче - 1:
The.Cloverfield.Paradox.2018.WEBRip.1080p.NewStudio.Baibako.Wanterlude.mkv8.39 GB

Текущая раздача:
ДатаКомментарии    РазмерПиры
2018-02-13 U Парадокс Кловерфилда / Частица Бога / The Cloverfield Paradox (2018) WEBRip 1080p | NewStudio, BaibaKo 8.39 GB ↑ 63 ↓ 117

Показать еще раздачи по запросу парадокс:
2018-02-14 U Парадокс Кловерфилда / Частица Бога / The Cloverfield Paradox (2018) HDRip | Solovey 2.67 GB ↑ 2 ↓ 0
2018-02-14 U Парадокс Кловерфилда / Частица Бога / The Cloverfield Paradox (2018) WEBRip 720p от k.e.n & MegaPeer | P, L, L1 4.35 GB ↑ 209 ↓ 69
2018-02-14 U Парадокс Кловерфилда / Частица Бога / The Cloverfield Paradox (2018) WEBRip-AVC от New-Team | NewStudio 746.40 MB ↑ 39 ↓ 25
2018-02-14 U Парадокс Кловерфилда / Частица Бога / The Cloverfield Paradox (2018) WEBRip от ExKinoRay | NewStudio 1.46 GB ↑ 52 ↓ 23
2018-02-13 U Парадокс Кловерфилда / Частица Бога / The Cloverfield Paradox (2018) WEBRip-AVC от New-Team | NewStudio 2.13 GB ↑ 144 ↓ 68
2018-02-13 U Парадокс Кловерфилда / Частица Бога / The Cloverfield Paradox (2018) WEBRip-AVC от New-Team | NewStudio 1К1.41 GB ↑ 158 ↓ 76
2018-02-13 U Парадокс Кловерфилда / Частица Бога / The Cloverfield Paradox (2018) WEBRip от MegaPeer | NewStudio 1.46 GB ↑ 79 ↓ 71

Отзывы
Зарегистрируйтесь чтобы добавить комментарий.
Обратная связь
Copyleft ©