↑↓Torrent.by
Поиск
Логин: Регистрация
Пароль: Восстановить пароль
Загрузка...

Подставной город / Fabricated City (2017) HDRip 720p | GreenРай Studio

Скачать podstavnoy-gorod-fabricated-city-2017-hdrip-720p-greenray-studio.torrent
U Магнитная ссылка Размер: 4.02 GB Раздают: 45 Качают: 22 Добавлен: 2018-02-13 14:39:03
Подставной город / Fabricated City (2017) HDRip 720p | GreenРай Studio

Название: Подставной город
Оригинальное название: Fabricated City
Год выпуска: 2017
Жанр:  Боевик, криминал
Режиссер: Кван Хён Пак
В ролях: Чан Ук Чжи, Ын Гён Сим, Чжон Се О, Чжэ Хон Ан, Сан Хо Ким (I), Ки Чхон Ким, Мин Гё Ким, Ха Ни Ли, Хо Чжун Ким, Сун Вон Ли, Сыль Ги Ким, И Ан Со, Тхэ Вон Квон, Чжи Хун Ким (IV), Гви Хва Чхве

О фильме:
В реальном мире Квон-ю — безработный неудачник, но в компьютерных играх — живая легенда и настоящий полевой командир. Однажды в кафе парень находит потерянный мобильник, хозяйка которого просит его вернуть трубу за вознаграждение, что он и делает. А на следующий день Квон-ю забирают в полицию. Хозяйка телефона изнасилована и убита, а наш виртуальный герой — идеальный подозреваемый, чтобы присесть на пожизненный. Самое время вспомнить свои командирские навыки, собрать в Сети преданных сторонников и показать этому миру — кто герой, а кто лузер.

 
Страна: Корея Южная
Студия: CJ Entertainment
Продолжительность: 02:08:37
Перевод: Любительский многоголосый [GreenРай Studio]

Файл
Кодек: x264
Качество: HDRip 720p
Видео: 4000 Кбит/с, 1280x536, 24.000 fps
Звук: Русский (AC3, 2 ch, 640 Кбит/с)

Внимание,имеется  видео и аудио реклама от спонсора показа

Над релизом работали:
Состав дикторовАнастасия Гайдаржи, Руслан Чериев, Олег Винник
Руководитель проекта и координатор: Евгений Овчаренко
Организатор и координатор: Никита Марков
Пиар менеджер студии: Гриша Чернозатонский
Техническая поддержка: Александр Методий

Релиз:


[+] MediaInfo
General
Unique ID                   : 191308330640880187207049549616859918794 (0x8FECA4EE2BC46D3F849EA1F7186D31CA)
Complete name               : E:workFabricated.City.2017.P.BDRip.720p.mkv
Format                      : Matroska
Format version              : Version 4 / Version 2
File size                   : 4.02 GiB
Duration                    : 2 h 7 min
Overall bit rate mode       : Constant
Overall bit rate            : 4 522 kb/s
Encoded date                : UTC 2018-02-12 18:39:18
Writing application         : mkvmerge v8.3.0 ('Over the Horizon') 64bit
Writing library             : libebml v1.3.1 + libmatroska v1.4.2

Video
ID                          : 1
Format                      : AVC
Format/Info                 : Advanced Video Codec
Format profile              : Main@L3.1
Format settings             : CABAC / 3 Ref Frames
Format settings, CABAC      : Yes
Format settings, ReFrames   : 3 frames
Format settings, GOP        : M=4, N=15
Codec ID                    : V_MPEG4/ISO/AVC
Duration                    : 2 h 7 min
Bit rate mode               : Constant
Bit rate                    : 4 000 kb/s
Width                       : 1 280 pixels
Height                      : 536 pixels
Display aspect ratio        : 2.40:1
Frame rate mode             : Constant
Frame rate                  : 24.000 FPS
Standard                    : NTSC
Color space                 : YUV
Chroma subsampling          : 4:2:0
Bit depth                   : 8 bits
Scan type                   : Progressive
Bits/(Pixel*Frame)          : 0.243
Stream size                 : 3.45 GiB (86%)
Language                    : English
Default                     : Yes
Forced                      : No
Color range                 : Limited

Audio
ID                          : 2
Format                      : AC-3
Format/Info                 : Audio Coding 3
Codec ID                    : A_AC3
Duration                    : 2 h 7 min
Bit rate mode               : Constant
Bit rate                    : 640 kb/s
Channel(s)                  : 2 channels
Channel positions           : Front: L R
Sampling rate               : 48.0 kHz
Frame rate                  : 31.250 FPS (1536 SPF)
Bit depth                   : 16 bits
Compression mode            : Lossy
Stream size                 : 583 MiB (14%)
Service kind                : Complete Main
Default                     : Yes
Forced                      : No




Скриншоты:
[+] Всего файлов в раздаче - 1:
Fabricated.City.2017.P.BDRip.720p.mkv4.02 GB

Текущая раздача:
ДатаКомментарии    РазмерПиры
2018-02-13 U Подставной город / Fabricated City (2017) HDRip 720p | GreenРай Studio 1 К 4.02 GB ↑ 45 ↓ 22

Похожие раздачи по запросу - подставной:
2018-02-13 U Подставной город / Fabricated City (2017) HDRip | GreenРай Studio 1.45 GB ↑ 83 ↓ 43
2017-03-31 U Подставной город / Jojakdwen doshi (2017) WEB-DLRip | L 2К2.05 GB ↑ 139 ↓ 99

Отзывы
vesna-olka1
С рекламой лохотрона - ешьте сами с волосами..

Зарегистрируйтесь чтобы добавить комментарий.
Обратная связь
Copyleft ©